Nasty Nymphos 8 / Нимфоманки 8 (Christopher Alexander, Anabolic Video) [1995 г., Anal, Double Penetration, Gonzo, All Sex, DVDRip, Kelly Trump , Alex Jordan , Janet Jacme ]

 Статистика раздачи 
Размер: 1.96 ГБ   |  Зарегистрирован: 05 сен 2015, 01:57   |   .torrent скачан: 0 раз
Сидеров: 1  [ 0 байт/сек ]     Личеров: 3  [ 0 байт/сек ]  
  
Аватара пользователя
Раздал: 130.41 ГБ
Скачал: 45.05 ГБ
Ратио: 2.895
Сообщения: 349589
Зарегистрирован: 27 июл 2015, 20:38

Nasty Nymphos 8 / Нимфоманки 8 (Christopher Alexander, Anabolic Video) [1995 г., Anal, Double Penetration, Gonzo, All Sex, DVDRip, Kelly Trump , Alex Jordan , Janet Jacme ]

Сообщение MalonE » 12 мар 2013, 15:47

Nasty Nymphos 8 - Нимфоманки 8
#77Год производства: 1995 г.
Страна: США|USA
Жанр: Anal, Double Penetration, Gonzo, All Sex
Продолжительность: 02:19:53
Язык: Английский
Режиссер: Christopher Alexander
Студия: Anabolic Video
В ролях:
Actresses
Alex Jordan [Facial]
Angela Whorney [Anal Facial]
Cherelle [Facial IR]
Janet Jacme [Anal]
Kelly Trump [Anal Facial DP DPP]
Marine Cartier [Anal Facial]
Actors
Mark Davis
Rocco Siffredi
Sean Michaels
Tom Byron
Описание: German Nymphette Kelly Trump takes the two huge cocks of Rocco and Mark Davis in her tight pussy at once!
8-я часть знаменитой серии. Немецкая нимфоманка Kelly Trump берет два огромных члена у Rocco и у Марка Дэвиса сразу!
Scene Breakdowns
Scene 1. Janet Jacme, Sean Michaels
Scene 2. Alex Jordan, Mark Davis
Scene 3. Marine Cartier, Tom Byron
Scene 4. Angela Whorney, Rocco Siffredi
Scene 5. Cherelle, Sean Michaels
Scene 6. Kelly Trump, Mark Davis, Rocco Siffredi
Доп. информация от КМР-плеера
General
Format : Matroska
File size : 1.96 GiB
Duration : 2h 19mn
Overall bit rate : 2 002 Kbps
Writing application : HandBrake 0.9.5
Writing library : libmkv 0.6.4.1
Video #1
ID : 1
Format : AVC
Format/Info : Advanced Video Codec
Format profile : [email protected]
Format settings, CABAC : Yes
Format settings, ReFrames : 8 frames
Muxing mode : Container [email protected]
Codec ID : V_MPEG4/ISO/AVC
Duration : 2h 19mn
Bit rate : 1 770 Kbps
Nominal bit rate : 1 805 Kbps
Width : 700 pixels
Height : 480 pixels
Display aspect ratio : 1.296
Frame rate mode : Variable
Frame rate : 29.970 fps
Resolution : 24 bits
Colorimetry : 4:2:0
Scan type : Progressive
Bits/(Pixel*Frame) : 0.176
Stream size : 1.73 GiB (88%)
Writing library : x264 core 112
Encoding settings : cabac=1 / ref=9 / deblock=1:-2:-2 / analyse=0x3:0x133 / me=umh / subme=9 / psy=1 / psy_rd=1.00:0.00 / mixed_ref=1 / me_range=24 / chroma_me=1 / trellis=2 / 8x8dct=1 / cqm=0 / deadzone=21,11 / fast_pskip=0 / chroma_qp_offset=-2 / threads=6 / sliced_threads=0 / nr=0 / decimate=1 / interlaced=0 / constrained_intra=0 / bframes=6 / b_pyramid=1 / b_adapt=2 / b_bias=0 / direct=3 / weightb=1 / open_gop=0 / weightp=2 / keyint=300 / keyint_min=29 / scenecut=40 / intra_refresh=0 / rc_lookahead=50 / rc=abr / mbtree=1 / bitrate=1805 / ratetol=1.0 / qcomp=0.60 / qpmin=3 / qpmax=51 / qpstep=4 / ip_ratio=1.40 / aq=1:1.20
colour_primaries : BT.601-6 525, BT.1358 525, BT.1700 NTSC, SMPTE 170M
transfer_characteristics : BT.709-5, BT.1361
matrix_coefficients : BT.601-6 525, BT.1358 525, BT.1700 NTSC, SMPTE 170M
Audio #2
ID : 2
Format : AC-3
Format/Info : Audio Coding 3
Codec ID : A_AC3
Duration : 2h 19mn
Bit rate mode : Constant
Bit rate : 192 Kbps
Channel(s) : 2 channels
Channel positions : L R
Sampling rate : 48.0 KHz
Stream size : 192 MiB (10%)
Language : English
Качество видео: DVDRip
Формат видео: MKV
Видео кодек: H.264/AVC
Аудио кодек: AC3
Видео: MPEG4 Video (H264) 700x480 (311:240) 29.97fps
Аудио: Dolby AC3 48000Hz stereo
Скриншоты
Nasty Nymphos #8 (690 MB)
 
   
Торрент:
Зарегистрирован [05 сен 2015, 01:57]
Скачать торрент Магнет ссылка
Скачать торрент
[ Размер 19.97 КБ / Просмотров 7 ]
Статус:
Проверен
 
.torrent скачан: 0 раз
Хэш: f5568e62eb4d69e8ef093165dd704fd74dd98481
Размер: 1.96 ГБ (2 100 256 021 байт)
 

Вернуться в Гонзо-фильмы / Gonzo

Кто сейчас на конференции

Сейчас эту тему просматривают: нет зарегистрированных пользователей и гости: 1


Ресурс не предоставляет электронные версии произведений, а занимается лишь коллекционированием и каталогизацией ссылок, присылаемых и публикуемых на форуме нашими читателями. Если вы являетесь правообладателем какого-либо представленного материала и не желаете чтобы ссылка на него находилась в нашем каталоге, свяжитесь с нами и мы незамедлительно удалим её. Файлы для обмена на трекере предоставлены пользователями сайта, и администрация не несёт ответственности за их содержание. Просьба не заливать файлы, защищенные авторскими правами, а также файлы нелегального содержания!
cron