Big Tit Fanatic 2 / Фанаты больших сисек 2 (L.T., Elegant Angel) [2013 г., Gonzo, Big Boobs, Anal, Interracial, DVDRip-AVC] (Anissa Kate, Lisa Ann, Raylene, Kelly Divine, Kiera King)

 Статистика раздачи 
Размер: 1.8 ГБ   |  Зарегистрирован: 05 сен 2015, 01:57   |   .torrent скачан: 0 раз
Сидеров: 3  [ 0 байт/сек ]     Личеров: 0  [ 0 байт/сек ]  
  
В сети
Аватара пользователя
Раздал: 130.41 ГБ
Скачал: 45.05 ГБ
Ратио: 2.895
Сообщения: 349589
Зарегистрирован: 27 июл 2015, 20:38

Big Tit Fanatic 2 / Фанаты больших сисек 2 (L.T., Elegant Angel) [2013 г., Gonzo, Big Boobs, Anal, Interracial, DVDRip-AVC] (Anissa Kate, Lisa Ann, Raylene, Kelly Divine, Kiera King)

Сообщение MalonE » 12 мар 2013, 16:26

Big Tit Fanatic 2 / Фанаты больших сисек 2-
Год производства: 2013 г.
Страна: USA
Жанр: Gonzo, Big Boobs, Anal, Interracial
Продолжительность: 02:58:33
Режиссер: L.T.
Студия: Elegant Angel
Язык: Английский
В ролях: Anissa Kate, Lisa Ann, Raylene, Kelly Divine, Kiera King

Описание: Do you love big, beautiful bosoms? If so then these lovely ladies are showing you just what they have under their shirts!

Доп. информация: http://www.adultdvdempire.com/1643511/big-tit-fanat...icesearch_buyDVD
Релиз группы: Jiggly
Качество видео: DVDRip-AVC
Формат видео: MP4
Видео кодек: H.264/AVC
Аудио кодек: AAC
Видео: 720x400 (1.80:1), 23.976 fps, ~1317 kbps avg @ crf 20, 0.191 bit/pixel
Аудио: 48 kHz, 2 ch, ~125 kbps
MediaInfo
Код:
Код: Выделить всё
Общее
Полное имя                               : Big.Tit.Fanatic.2.XXX.DVDRip.x264-Jiggly.mp4
Формат                                   : MPEG-4
Профиль формата                          : Base Media
Идентификатор кодека                     : isom
Размер файла                             : 1,80 Гбайт
Продолжительность                        : 2 ч. 58 м.
Режим общего битрейта                    : Переменный
Общий поток                              : 1446 Кбит/сек
Дата кодирования                         : UTC 2013-02-21 18:30:27
Дата пометки                             : UTC 2013-02-21 18:30:27
Видео
Идентификатор                            : 1
Формат                                   : AVC
Формат/Информация                        : Advanced Video Codec
Профиль формата                          : [email protected]
Параметр CABAC формата                   : Да
Параметр ReFrames формата                : 5 кадров
Идентификатор кодека                     : avc1
Идентификатор кодека/Информация          : Advanced Video Coding
Продолжительность                        : 2 ч. 58 м.
Битрейт                                  : 1317 Кбит/сек
Максимальный битрейт                     : 6317 Кбит/сек
Ширина                                   : 720 пикселей
Высота                                   : 400 пикселей
Соотношение сторон                       : 16:9
Режим частоты кадров                     : Постоянный
Частота кадров                           : 23,976 кадра/сек
Цветовое пространство                    : YUV
Субдискретизация насыщенности            : 4:2:0
Битовая глубина                          : 8 бит
Тип развёртки                            : Прогрессивная
Бит/(Пиксели*Кадры)                      : 0.191
Размер потока                            : 1,64 Гбайт (91%)
Библиотека кодирования                   : x264 core 129 r2245 bc13772
Настройки программы                      : cabac=1 / ref=5 / deblock=1:0:0 / analyse=0x3:0x133 / me=umh / subme=8 / psy=1 / psy_rd=1.00:0.00 / mixed_ref=1 / me_range=16 / chroma_me=1 / trellis=1 / 8x8dct=1 / cqm=0 / deadzone=21,11 / fast_pskip=0 / chroma_qp_offset=-2 / threads=12 / lookahead_threads=2 / sliced_threads=0 / nr=0 / decimate=1 / interlaced=0 / bluray_compat=0 / constrained_intra=0 / bframes=3 / b_pyramid=2 / b_adapt=2 / b_bias=0 / direct=3 / weightb=1 / open_gop=0 / weightp=2 / keyint=240 / keyint_min=23 / scenecut=40 / intra_refresh=0 / rc_lookahead=50 / rc=crf / mbtree=1 / crf=20.0 / qcomp=0.60 / qpmin=0 / qpmax=69 / qpstep=4 / ip_ratio=1.40 / aq=1:1.00
Дата кодирования                         : UTC 2013-02-21 16:10:06
Дата пометки                             : UTC 2013-02-21 18:31:04
Аудио
Идентификатор                            : 2
Формат                                   : AAC
Формат/Информация                        : Advanced Audio Codec
Профиль формата                          : LC
Идентификатор кодека                     : 40
Продолжительность                        : 2 ч. 58 м.
Вид битрейта                             : Переменный
Битрейт                                  : 125 Кбит/сек
Максимальный битрейт                     : 147 Кбит/сек
Каналы                                   : 2 канала
Расположение каналов                     : Front: L R
Частота                                  : 48,0 КГц
Метод сжатия                             : С потерями
Задержка видео                           : 83 мс.
Размер потока                            : 160 Мбайт (9%)
Дата кодирования                         : UTC 2013-02-21 18:21:55
Дата пометки                             : UTC 2013-02-21 18:31:04

Скринлист
Скриншоты







 
   
Торрент:
Зарегистрирован [05 сен 2015, 01:57]
Скачать торрент Магнет ссылка
Скачать торрент
[ Размер 18.44 КБ / Просмотров 2 ]
Статус:
Проверен
 
.torrent скачан: 0 раз
Хэш: 51ea2bb42450bac0f3d16c4ee434acc456a15a05
Размер: 1.8 ГБ (1 936 783 658 байт)
 

Вернуться в Гонзо-фильмы / Gonzo

Кто сейчас на конференции

Сейчас эту тему просматривают: нет зарегистрированных пользователей и гости: 1


Ресурс не предоставляет электронные версии произведений, а занимается лишь коллекционированием и каталогизацией ссылок, присылаемых и публикуемых на форуме нашими читателями. Если вы являетесь правообладателем какого-либо представленного материала и не желаете чтобы ссылка на него находилась в нашем каталоге, свяжитесь с нами и мы незамедлительно удалим её. Файлы для обмена на трекере предоставлены пользователями сайта, и администрация не несёт ответственности за их содержание. Просьба не заливать файлы, защищенные авторскими правами, а также файлы нелегального содержания!
cron