Babysitter 7 | Няня 7 (Jim Powers, Notorious) [2001 г., Anal, DP, Teens 18+, DVDRip, Anne Howe , Brooke Hunter , Hannah Harper ]

 Статистика раздачи 
Размер: 1.44 ГБ   |  Зарегистрирован: 05 сен 2015, 01:11   |   .torrent скачан: 1 раз
Сидеров: 3  [ 0 байт/сек ]     Личеров: 0  [ 0 байт/сек ]  
  
Аватара пользователя
Раздал: 130.41 ГБ
Скачал: 45.05 ГБ
Ратио: 2.895
Сообщения: 349589
Зарегистрирован: 27 июл 2015, 20:38

Babysitter 7 | Няня 7 (Jim Powers, Notorious) [2001 г., Anal, DP, Teens 18+, DVDRip, Anne Howe , Brooke Hunter , Hannah Harper ]

Сообщение MalonE » 14 мар 2013, 19:11

Babysitter 7 | Няня 7- #77Год производства: 2001 г.
Страна: США | USA
Жанр: Anal, DP, Teens 18+
Продолжительность: 01:22:34
Язык: Английский
Режиссер: Jim Powers
Студия: Notorious
В ролях:
Actresses
Anne Howe [Facial]
Brooke Hunter [Bald]
Hannah Harper [Anal Facial]
Kimmy Kahn [Facial Bald]
Olivia Saint (as Sienna) [Anal Facial DP]
Actors
Brett Rockman (as Brett Ruckman)
Don Hollywood
Marc Cummings
Rafe
T.J. Cummings
Описание: In the seventh iteration of the popular babysitter series we have some extra hot, young sluts wanting to earn some extra cash, but they just end up with a cock in their ass.
Scene Breakdowns
Scene 1. Hannah Harper, Rafe
Scene 2. Brooke Hunter, Kimmy Kahn, Don Hollywood
Scene 3. Anne Howe, T.J. Cummings
Scene 4. Olivia Saint, Brett Rockman, Marc Cummings
Доп. информация от КМР-плеера
General
Format : Windows Media
File size : 1.44 GiB
Duration : 1h 22mn
Overall bit rate mode : Constant
Overall bit rate : 2 500 Kbps
Maximum Overall bit rate : 2 510 Kbps
Encoded date : UTC 2013-03-10 18:52:17.939
Video #2
ID : 2
Format : WMV2
Codec ID : WMV2
Codec ID/Info : Windows Media Video 8
Description of the codec : Windows Media Video V8
Duration : 1h 22mn
Bit rate mode : Constant
Bit rate : 2 360 Kbps
Width : 720 pixels
Height : 480 pixels
Display aspect ratio : 1.500
Frame rate : 29.970 fps
Standard : NTSC
Resolution : 24 bits
Bits/(Pixel*Frame) : 0.228
Stream size : 1.36 GiB (94%)
Language : English (US)
Audio #1
ID : 1
Format : WMA2
Codec ID : 161
Codec ID/Info : Windows Media Audio 2
Description of the codec : Windows Media Audio 9.2 - 128 kbps, 48 kHz, stereo 1-pass CBR
Duration : 1h 22mn
Bit rate mode : Constant
Bit rate : 128 Kbps
Channel(s) : 2 channels
Sampling rate : 48.0 KHz
Resolution : 16 bits
Stream size : 75.6 MiB (5%)
Language : English (US)
Качество видео: DVDRip
Формат видео: MPEG
Видео кодек: Windows Media
Аудио кодек: WMA
Видео: WMV 2, 720x480, 30fps, 2360 Kbps
Аудио: 48.0 KHz, 2 ch ,128 Kbps
Скриншоты
Babysitter 1
Babysitter 3
 
   
Торрент:
Зарегистрирован [05 сен 2015, 01:11]
Скачать торрент Магнет ссылка
Скачать торрент
[ Размер 14.86 КБ / Просмотров 5 ]
Статус:
Проверен
 
.torrent скачан: 1 раз
Хэш: e57cd809f7187c8497e644b5b52f343a4afabcb4
Размер: 1.44 ГБ (1 548 603 169 байт)
 

Вернуться в Гонзо-фильмы / Gonzo

Кто сейчас на конференции

Сейчас эту тему просматривают: нет зарегистрированных пользователей и гости: 1


Ресурс не предоставляет электронные версии произведений, а занимается лишь коллекционированием и каталогизацией ссылок, присылаемых и публикуемых на форуме нашими читателями. Если вы являетесь правообладателем какого-либо представленного материала и не желаете чтобы ссылка на него находилась в нашем каталоге, свяжитесь с нами и мы незамедлительно удалим её. Файлы для обмена на трекере предоставлены пользователями сайта, и администрация не несёт ответственности за их содержание. Просьба не заливать файлы, защищенные авторскими правами, а также файлы нелегального содержания!
cron