Please 6 - Quick Service Girls | Пожалуйста 6 - Девушки быстрого обслуживания (Joey Silvera, Evil Angel) [1999 г., All Sex, Group Sex, Lesbians, Gonzo, DVDRip , Eva Mercedes , Daniella Rush , April Flowers ]

 Статистика раздачи 
Размер: 790.51 МБ   |  Зарегистрирован: 05 сен 2015, 00:31   |   .torrent скачан: 0 раз
Сидеров: 3  [ 0 байт/сек ]     Личеров: 0  [ 0 байт/сек ]  
  
Аватара пользователя
Раздал: 130.41 ГБ
Скачал: 45.05 ГБ
Ратио: 2.895
Сообщения: 349589
Зарегистрирован: 27 июл 2015, 20:38

Please 6 - Quick Service Girls | Пожалуйста 6 - Девушки быстрого обслуживания (Joey Silvera, Evil Angel) [1999 г., All Sex, Group Sex, Lesbians, Gonzo, DVDRip , Eva Mercedes , Daniella Rush , April Flowers ]

Сообщение MalonE » 16 мар 2013, 20:15

Please 6 - Quick Service Girls | Пожалуйста 6 - Девушки быстрого обслуживания -#77Год производства: 1999 г.
Страна: США | USA
Жанр: All Sex, Group Sex, Lesbians , Gonzo
Продолжительность: 02:06:38
Язык: Немецкий
Режиссер: Joey Silvera
Студия: Evil Angel
В ролях:
Actresses
April Flowers [Facial IR]
Charlene Aspen [IR]
Fanny (as Cherry Lee) [Anal IR]
Daisy Chain [LezOnly]
Daniella Rush [Anal Facial DP IR]
Kaila [LezOnly]
Leah [LezOnly]
Eva Mercedes (as Mustang) [Anal Facial]
Actors
Diego
Lexington Steele
Nacho Vidal
Описание: Here are five dripping scenes from Joey Silvera's pinnacle era of creative weirdness, finally on DVD. Nacho Vidal and Lexington Steele give Daniella Rush a rock- 'em-sock-'em anal pounding; redhead Charlene and blond Cherry Lee both get assfucked by Lexington. This video also marked the Evil angel debut of pretty April Flowers, who returned later in Please! 11. Young Kayla gets bound by Leah and Daisy Chain using plastic tape; they ravage her lesbian-style and push a sex toy into her pussy. And Eastern European beauty Mustang has her ass eaten by Nacho in public; afterward, he takes her to a hotel for a rough fuck session. This classic 1999 feature includes nine Joey Silvera trailers.
Scene Breakdowns
Scene 1. Daniella Rush, Lexington Steele, Nacho Vidal
Scene 2. Charlene Aspen, Fanny, Lexington Steele
Scene 3. Daisy Chain, Kaila, Leah
Scene 4. April Flowers, Diego
Scene 5. Eva Mercedes, Nacho Vidal
Доп. информация от КМР-плеера
General
Format : AVI
Format/Info : Audio Video Interleave
File size : 791 MiB
Duration : 2h 6mn
Overall bit rate : 873 Kbps
Writing library : VirtualDub build 12667/release
Video #0
ID : 0
Format : MPEG-4 Visual
Format settings, BVOP : Yes
Format settings, QPel : No
Format settings, GMC : No warppoints
Format settings, Matrix : Default (H.263)
Codec ID : DIVX
Codec ID/Info : Project Mayo
Codec ID/Hint : DivX 4
Duration : 2h 6mn
Bit rate : 735 Kbps
Width : 464 pixels
Height : 368 pixels
Display aspect ratio : 5:4
Frame rate : 25.000 fps
Resolution : 24 bits
Scan type : Progressive
Bits/(Pixel*Frame) : 0.172
Stream size : 666 MiB (84%)
Audio #1
ID : 1
Format : MPEG Audio
Format version : Version 1
Format profile : Layer 3
Codec ID : 55
Codec ID/Hint : MP3
Duration : 2h 6mn
Bit rate mode : Constant
Bit rate : 128 Kbps
Channel(s) : 2 channels
Sampling rate : 48.0 KHz
Resolution : 16 bits
Video delay : 23ms
Stream size : 116 MiB (15%)
Alignment : Split accross interleaves
Interleave, duration : 40 ms (1.00 video frame)
Interleave, preload duration : 500 ms
Качество видео: DVDRip
Формат видео: AVI
Видео кодек: DivX
Аудио кодек: MP3
Видео: DivX 6 464x368 25.00fps
Аудио: 48000Hz stereo 128Kbps
Скриншоты
 
   
Торрент:
Зарегистрирован [05 сен 2015, 00:31]
Скачать торрент Магнет ссылка
Скачать торрент
[ Размер 15.9 КБ / Просмотров 4 ]
Статус:
Проверен
 
.torrent скачан: 0 раз
Хэш: 99e78be8271d32d3271b0dce89d56d486dc91806
Размер: 790.51 МБ (828 911 616 байт)
 

Вернуться в Гонзо-фильмы / Gonzo

Кто сейчас на конференции

Сейчас эту тему просматривают: нет зарегистрированных пользователей и гости: 1


Ресурс не предоставляет электронные версии произведений, а занимается лишь коллекционированием и каталогизацией ссылок, присылаемых и публикуемых на форуме нашими читателями. Если вы являетесь правообладателем какого-либо представленного материала и не желаете чтобы ссылка на него находилась в нашем каталоге, свяжитесь с нами и мы незамедлительно удалим её. Файлы для обмена на трекере предоставлены пользователями сайта, и администрация не несёт ответственности за их содержание. Просьба не заливать файлы, защищенные авторскими правами, а также файлы нелегального содержания!
cron