Pornstars Like It Big 16 / Порнозвезды любят большие 16 (Brazzers) [2013, All Sex, Big Tits, Big Dicks, Gonzo, DVDRip-AVC] (Shyla Stylez, Jessica Jaymes, Bridgette B., Kortney Kane, Lily Carter, Nicole Aniston, Christy Mack)

 Статистика раздачи 
Размер: 2.05 ГБ   |  Зарегистрирован: 04 сен 2015, 23:34   |   .torrent скачан: 0 раз
Сидеров: 3  [ 0 байт/сек ]     Личеров: 0  [ 0 байт/сек ]  
  
Аватара пользователя
Раздал: 130.41 ГБ
Скачал: 45.05 ГБ
Ратио: 2.895
Сообщения: 349589
Зарегистрирован: 27 июл 2015, 20:38

Pornstars Like It Big 16 / Порнозвезды любят большие 16 (Brazzers) [2013, All Sex, Big Tits, Big Dicks, Gonzo, DVDRip-AVC] (Shyla Stylez, Jessica Jaymes, Bridgette B., Kortney Kane, Lily Carter, Nicole Aniston, Christy Mack)

Сообщение MalonE » 18 мар 2013, 17:40

Pornstars Like It Big 16 / Порнозвезды любят большие 16-Год производства: 2013 г.
Страна: USA
Жанр: All Sex, Big Tits, Big Dicks, Gonzo
Продолжительность: 03:39:34
Студия: Brazzers
Язык: Английский
В ролях: Shyla Stylez, Jessica Jaymes, Bridgette B., Kortney Kane, Lily Carter, Nicole Aniston, Christy Mack, Tommy Gunn, James Deen, Johnny Sins, Kieran Lee

Описание: 'The hottest pornstars fucking the biggest dicks!
Scenes Include:
Porno Theater Ho
The only thing that gets adult starlet Bridgette B wet and horny now is the idea of being used like a dirty slut by more than one guy at a time!
Actualizing The Vision
Johnny Sins is skilled at meditation. He was able to conjure a terrific world and within it, a perfect woman. Christy Mack is a thing of beauty, the ultimate inspiration of lust!
Glory Hole Addiction
Kortney Kane is a pornstar by day and a ragging nympho by night. She spends her nights in an underground parking garage having her mouth and pussy stretched by Tommy's big cock via glory hole!
Turn Me On, Tune In, Drop Out
Lily Carter is a university drop out and has nothing going on in her life...not even a place to live. Fortunately her brothers best friend Kieran agreed to let Lily stay with him!
A Day In The Life Of Shyla Stylez
Wale up with Shyla Stylez and spend the entire day with her. She loves to relax with a nice big fat cock. She even gets her sexy maid servant, Jessica Jaymes, to join in on her fun!

Доп. информация: http://www.adultdvdempire.com/1642369/pornstars-lik...porn-movies.html
Релиз группы: DivXfacTory
Качество видео: DVDRip-AVC
Формат видео: MP4
Видео кодек: H.264/AVC
Аудио кодек: AAC
Видео: 720x404 (1.78:1), 29.970 fps, ~1211 kbps avg @ crf 21, 0.139 bit/pixel
Аудио: 48 kHz, 2 ch, ~124 kbps
MediaInfo
Код:
Код: Выделить всё
Общее
Полное имя                               : Pornstars.Like.It.Big.16.XXX.DVDRiP.x264-DivXfacTory.mp4
Формат                                   : MPEG-4
Профиль формата                          : Base Media
Идентификатор кодека                     : isom
Размер файла                             : 2,05 Гбайт
Продолжительность                        : 3 ч. 39 м.
Режим общего битрейта                    : Переменный
Общий поток                              : 1340 Кбит/сек
Дата кодирования                         : UTC 2013-03-18 04:15:21
Дата пометки                             : UTC 2013-03-18 04:15:21
Видео
Идентификатор                            : 1
Формат                                   : AVC
Формат/Информация                        : Advanced Video Codec
Профиль формата                          : [email protected]
Параметр CABAC формата                   : Да
Параметр ReFrames формата                : 5 кадров
Идентификатор кодека                     : avc1
Идентификатор кодека/Информация          : Advanced Video Coding
Продолжительность                        : 3 ч. 39 м.
Битрейт                                  : 1211 Кбит/сек
Максимальный битрейт                     : 4711 Кбит/сек
Ширина                                   : 720 пикселей
Высота                                   : 404 пикселя
Соотношение сторон                       : 16:9
Режим частоты кадров                     : Постоянный
Частота кадров                           : 29,970 кадров/сек
Цветовое пространство                    : YUV
Субдискретизация насыщенности            : 4:2:0
Битовая глубина                          : 8 бит
Тип развёртки                            : Прогрессивная
Бит/(Пиксели*Кадры)                      : 0.139
Размер потока                            : 1,86 Гбайт (90%)
Заголовок                                : 264#trackID=1:[email protected]
Библиотека кодирования                   : x264 core 130 r2273 b3065e6
Настройки программы                      : cabac=1 / ref=5 / deblock=1:0:0 / analyse=0x3:0x113 / me=umh / subme=8 / psy=1 / psy_rd=1.00:0.00 / mixed_ref=1 / me_range=16 / chroma_me=1 / trellis=1 / 8x8dct=1 / cqm=0 / deadzone=21,11 / fast_pskip=0 / chroma_qp_offset=-2 / threads=12 / lookahead_threads=2 / sliced_threads=0 / nr=0 / decimate=1 / interlaced=0 / bluray_compat=0 / constrained_intra=0 / bframes=3 / b_pyramid=2 / b_adapt=2 / b_bias=0 / direct=3 / weightb=1 / open_gop=0 / weightp=2 / keyint=300 / keyint_min=29 / scenecut=40 / intra_refresh=0 / rc_lookahead=50 / rc=crf / mbtree=1 / crf=21.0 / qcomp=0.60 / qpmin=0 / qpmax=69 / qpstep=4 / ip_ratio=1.40 / aq=1:1.00
Дата кодирования                         : UTC 2013-03-18 04:15:21
Дата пометки                             : UTC 2013-03-18 04:29:01
Аудио
Идентификатор                            : 2
Формат                                   : AAC
Формат/Информация                        : Advanced Audio Codec
Профиль формата                          : LC
Идентификатор кодека                     : 40
Продолжительность                        : 3 ч. 39 м.
Вид битрейта                             : Переменный
Битрейт                                  : 124 Кбит/сек
Максимальный битрейт                     : 149 Кбит/сек
Каналы                                   : 2 канала
Расположение каналов                     : Front: L R
Частота                                  : 48,0 КГц
Метод сжатия                             : С потерями
Размер потока                            : 195 Мбайт (9%)
Язык                                     : English
Дата кодирования                         : UTC 2013-03-18 02:19:29
Дата пометки                             : UTC 2013-03-18 04:29:01

Скринлист
Скриншоты












 
   
Торрент:
Зарегистрирован [04 сен 2015, 23:34]
Скачать торрент Магнет ссылка
Скачать торрент
[ Размер 10.68 КБ / Просмотров 2 ]
Статус:
Проверен
 
.torrent скачан: 0 раз
Хэш: c6146e2842745ef807de1c4c9811068375f75f38
Размер: 2.05 ГБ (2 205 980 288 байт)
 

Вернуться в Гонзо-фильмы / Gonzo

Кто сейчас на конференции

Сейчас эту тему просматривают: нет зарегистрированных пользователей и гости: 1


Ресурс не предоставляет электронные версии произведений, а занимается лишь коллекционированием и каталогизацией ссылок, присылаемых и публикуемых на форуме нашими читателями. Если вы являетесь правообладателем какого-либо представленного материала и не желаете чтобы ссылка на него находилась в нашем каталоге, свяжитесь с нами и мы незамедлительно удалим её. Файлы для обмена на трекере предоставлены пользователями сайта, и администрация не несёт ответственности за их содержание. Просьба не заливать файлы, защищенные авторскими правами, а также файлы нелегального содержания!
cron