Best of Russian Institute : schoolgirls, teachers & holidays (Hervé Bodilis, Marc Dorcel) [2014 г., All sex]

 Статистика раздачи 
Размер: 1.53 ГБ   |  Зарегистрирован: 20 окт 2015, 05:40   |   .torrent скачан: 1 раз
Сидеров: 1  [ 0 байт/сек ]     Личеров: 0  [ 0 байт/сек ]  
  
Случайная аватара
Раздал: 2 ГБ
Скачал: 0 байт
Ратио: Seed.
Сообщения: 12530
Зарегистрирован: 15 окт 2015, 12:16

Best of Russian Institute : schoolgirls, teachers & holidays (Hervé Bodilis, Marc Dorcel) [2014 г., All sex]

Сообщение Tony Ribas » 20 окт 2015, 05:40

Best of Russian Institute : schoolgirls, teachers & holidays


Год производства: 2014 г.
Страна: FR
Жанр: All sex
Продолжительность: 2h 8mn
Режиссер: Hervé Bodilis
Студия: Marc Dorcel

В ролях: Aletta Ocean, Aliz, Anna Polina, Black Angelika, Cindy Hope, Jessyca Wilson, Klarisa, Kristine Crystalis , Nasta Zya, Natalli Diangelo, Oksana, Sabrina Blond

Описание:
Summary of the movie Best of Russian Institute : schoolgirls, teachers & holidays

Have you always fantasised about white blouses, tartan skirts and little cotton knickers? Then don't delay: take a seat on the benches of this boarding school alongside gorgeous young women and let us guide you through the very private world of the RUSSIAN INSTITUTE. 1. Schoolgirls and teachers: The gorgeous boarders at the Russian Institute have an insatiable thirst for learning. And for their pleasure, an entire team of dedicated teachers is entirely at their disposal! They are always willing to give of themselves for their students. 2. Schoolgirls on holiday: The holidays are a good opportunity to make discoveries and meet new people. But it is also a time for the schoolgirls to put into practice all the things they have learned during the year: blowjobs, anal sex, double penetration... They revise everything thoroughly

Доп. информация:
Format : AVI
Format/Info : Audio Video Interleave
File size : 1.53 GiB
Duration : 2h 8mn
Overall bit rate : 1 700 Kbps

Video
ID : 0
Format : AVC
Format/Info : Advanced Video Codec
Format profile :
Format settings, CABAC : Yes
Format settings, ReFrames : 1 frame
Codec ID : H264
Duration : 12s 0ms
Bit rate : 1 498 Kbps
Width : 1 280 pixels
Height : 720 pixels
Display aspect ratio : 16:9
Frame rate : 25.000 fps
Color space : YUV
Chroma subsampling : 4:2:0
Bit depth : 8 bits
Scan type : Progressive
Bits/(Pixel*Frame) : 0.065
Stream size : 1.35 GiB (88%)

Audio
ID : 1
Format : MPEG Audio
Format version : Version 1
Format profile : Layer 3
Codec ID : 55
Codec ID/Hint : MP3
Duration : 2h 8mn
Bit rate mode : Constant
Bit rate : 192 Kbps
Channel(s) : 2 channels
Sampling rate : 44.1 KHz
Compression mode : Lossy
Stream size : 177 MiB (11%)
Alignment : Split accross interleaves
Interleave, duration : 41 ms (1.03 video frame)
Interleave, preload duration : 136 ms
Writing library : LAMELAME_MAJOR_VERSI
 
   
Торрент:
Зарегистрирован [20 окт 2015, 05:40]
Скачать торрент Магнет ссылка
Скачать торрент
[ Размер 16.08 КБ / Просмотров 3 ]
Статус:
Проверен
 
.torrent скачан: 1 раз
Хэш: ccf5134b306034f1777a3d9de5a98886c684fafb
Размер: 1.53 ГБ (1 640 172 464 байт)
 

Вернуться в Гонзо-фильмы / Gonzo

Кто сейчас на конференции

Сейчас эту тему просматривают: нет зарегистрированных пользователей и гости: 1


Ресурс не предоставляет электронные версии произведений, а занимается лишь коллекционированием и каталогизацией ссылок, присылаемых и публикуемых на форуме нашими читателями. Если вы являетесь правообладателем какого-либо представленного материала и не желаете чтобы ссылка на него находилась в нашем каталоге, свяжитесь с нами и мы незамедлительно удалим её. Файлы для обмена на трекере предоставлены пользователями сайта, и администрация не несёт ответственности за их содержание. Просьба не заливать файлы, защищенные авторскими правами, а также файлы нелегального содержания!
cron