Hard Activity sex and sport (J.F. Romagnoli) [2014 г., Anal,Oral,Bigtits, DVDRip]

 Статистика раздачи 
Размер: 1.08 ГБ   |  Зарегистрирован: 20 окт 2015, 05:16   |   .torrent скачан: 1 раз
Сидеров: 3  [ 0 байт/сек ]     Личеров: 0  [ 0 байт/сек ]  
  
Случайная аватара
Раздал: 2 ГБ
Скачал: 0 байт
Ратио: Seed.
Сообщения: 12530
Зарегистрирован: 15 окт 2015, 12:16

Hard Activity sex and sport (J.F. Romagnoli) [2014 г., Anal,Oral,Bigtits, DVDRip]

Сообщение Tony Ribas » 20 окт 2015, 05:16

Hard Activity sex and sport


Год производства: 2014 г.
Страна: ITA
Жанр: Anal,Oral,Bigtits
Продолжительность: 1h 52mn
Язык: Английский

Режиссер: J.F. Romagnoli
В ролях: Valentina Canali, Abbie Cat, Liza Del Sierra, Bettina Di Capri, Ivana Sugar, Kerry

Доп. информация:
Format : AVI
Format/Info : Audio Video Interleave
File size : 1.08 GiB
Duration : 1h 52mn
Overall bit rate : 1 368 Kbps
Writing application : VirtualDubMod 1.5.10.2 (build 2540/release)
Writing library : VirtualDubMod build 2540/release

Video
ID : 0
Format : MPEG-4 Visual
Format profile : Advanced [email protected]
Format settings, BVOP : 2
Format settings, QPel : No
Format settings, GMC : No warppoints
Format settings, Matrix : Default (H.263)
Codec ID : XVID
Codec ID/Hint : XviD
Duration : 1h 52mn
Bit rate : 1 303 Kbps
Width : 608 pixels
Height : 336 pixels
Display aspect ratio : 16:9
Frame rate : 25.000 fps
Color space : YUV
Chroma subsampling : 4:2:0
Bit depth : 8 bits
Scan type : Progressive
Compression mode : Lossy
Bits/(Pixel*Frame) : 0.255
Stream size : 1.03 GiB (95%)
Writing library : XviD 64

Audio
ID : 1
Format : MPEG Audio
Format version : Version 1
Format profile : Layer 3
Mode : Joint stereo
Mode extension : MS Stereo
Codec ID : 55
Codec ID/Hint : MP3
Duration : 1h 52mn
Bit rate mode : Constant
Bit rate : 56.0 Kbps
Channel(s) : 2 channels
Sampling rate : 44.1 KHz
Compression mode : Lossy
Stream size : 45.3 MiB (4%)
Alignment : Split accross interleaves
Interleave, duration : 40 ms (1.00 video frame)
Interleave, preload duration : 500 ms
Качество видео: DVDRip
 
   
Торрент:
Зарегистрирован [20 окт 2015, 05:16]
Скачать торрент Магнет ссылка
Скачать торрент
[ Размер 11.45 КБ / Просмотров 0 ]
Статус:
Проверен
 
.torrent скачан: 1 раз
Хэш: e10e2bc8da7e5e2550745d404c62238bbaa07906
Размер: 1.08 ГБ (1 159 616 512 байт)
 

Вернуться в Гонзо-фильмы / Gonzo

Кто сейчас на конференции

Сейчас эту тему просматривают: нет зарегистрированных пользователей и гости: 1


Ресурс не предоставляет электронные версии произведений, а занимается лишь коллекционированием и каталогизацией ссылок, присылаемых и публикуемых на форуме нашими читателями. Если вы являетесь правообладателем какого-либо представленного материала и не желаете чтобы ссылка на него находилась в нашем каталоге, свяжитесь с нами и мы незамедлительно удалим её. Файлы для обмена на трекере предоставлены пользователями сайта, и администрация не несёт ответственности за их содержание. Просьба не заливать файлы, защищенные авторскими правами, а также файлы нелегального содержания!
cron