Vogliose E Spudorate (Franco Avon, Atv Entertainment) [2013 г., anal, DVDRip]

 Статистика раздачи 
Размер: 1.08 ГБ   |  Зарегистрирован: 20 окт 2015, 04:48   |   .torrent скачан: 0 раз
Сидеров: 3  [ 0 байт/сек ]     Личеров: 1  [ 0 байт/сек ]  
  
Случайная аватара
Раздал: 2 ГБ
Скачал: 0 байт
Ратио: Seed.
Сообщения: 12530
Зарегистрирован: 15 окт 2015, 12:16

Vogliose E Spudorate (Franco Avon, Atv Entertainment) [2013 г., anal, DVDRip]

Сообщение Tony Ribas » 20 окт 2015, 04:48

Vogliose E Spudorate

Год производства: 2013 г.
Страна: ITA
Жанр: anal
Продолжительность: 1h 48mn
Режиссер: Franco Avon
Студия: Atv Entertainment

В ролях: Monella Bambola Terry Sulliva Bella Morgan Jessica Fiorentino Leonardo Conti Tarzan Neeo Kamil Klein Big Willy
Format : AVI
Format/Info : Audio Video Interleave
File size : 1.08 GiB
Duration : 1h 48mn
Overall bit rate : 1 426 Kbps
Writing application : VirtualDubMod 1.5.10.2 (build 2540/release)
Writing library : VirtualDubMod build 2540/release

Video
ID : 0
Format : MPEG-4 Visual
Format profile : Advanced [email protected]
Format settings, BVOP : 2
Format settings, QPel : No
Format settings, GMC : No warppoints
Format settings, Matrix : Default (H.263)
Codec ID : XVID
Codec ID/Hint : XviD
Duration : 1h 48mn
Bit rate : 1 369 Kbps
Width : 608 pixels
Height : 336 pixels
Display aspect ratio : 16:9
Frame rate : 25.000 fps
Color space : YUV
Chroma subsampling : 4:2:0
Bit depth : 8 bits
Scan type : Progressive
Compression mode : Lossy
Bits/(Pixel*Frame) : 0.268
Stream size : 1.04 GiB (96%)
Writing library : XviD 64

Audio
ID : 1
Format : MPEG Audio
Format version : Version 1
Format profile : Layer 3
Mode : Joint stereo
Mode extension : MS Stereo
Codec ID : 55
Codec ID/Hint : MP3
Duration : 1h 48mn
Bit rate mode : Constant
Bit rate : 48.0 Kbps
Channel(s) : 2 channels
Sampling rate : 44.1 KHz
Compression mode : Lossy
Stream size : 37.2 MiB (3%)
Alignment : Split accross interleaves
Interleave, duration : 40 ms (1.00 video frame)
Interleave, preload duration : 500 ms
Writing library : LAME3.98.4
 
   
Торрент:
Зарегистрирован [20 окт 2015, 04:48]
Скачать торрент Магнет ссылка
Скачать торрент
[ Размер 11.44 КБ / Просмотров 2 ]
Статус:
Проверен
 
.torrent скачан: 0 раз
Хэш: a7ac349a0d8280cb6f1e73fd4b02b801a0bef2d4
Размер: 1.08 ГБ (1 159 899 136 байт)
 

Вернуться в Гонзо-фильмы / Gonzo

Кто сейчас на конференции

Сейчас эту тему просматривают: нет зарегистрированных пользователей и гости: 1


Ресурс не предоставляет электронные версии произведений, а занимается лишь коллекционированием и каталогизацией ссылок, присылаемых и публикуемых на форуме нашими читателями. Если вы являетесь правообладателем какого-либо представленного материала и не желаете чтобы ссылка на него находилась в нашем каталоге, свяжитесь с нами и мы незамедлительно удалим её. Файлы для обмена на трекере предоставлены пользователями сайта, и администрация не несёт ответственности за их содержание. Просьба не заливать файлы, защищенные авторскими правами, а также файлы нелегального содержания!
cron