Double Decker Sandwich 12 / Двойной сэндвич 12 (Mike Quasar / Zero Tolerance) [2008 г., All Sex, Gonzo, Anal, Threesomes, 1080p, Blu-Ray]

 Статистика раздачи 
Размер: 22.26 ГБ   |  Зарегистрирован: 20 окт 2015, 04:27   |   .torrent скачан: 0 раз
Сидеров: 3  [ 0 байт/сек ]     Личеров: 1  [ 0 байт/сек ]  
  
Случайная аватара
Раздал: 2 ГБ
Скачал: 0 байт
Ратио: Seed.
Сообщения: 12530
Зарегистрирован: 15 окт 2015, 12:16

Double Decker Sandwich 12 / Двойной сэндвич 12 (Mike Quasar / Zero Tolerance) [2008 г., All Sex, Gonzo, Anal, Threesomes, 1080p, Blu-Ray]

Сообщение Tony Ribas » 20 окт 2015, 04:27

Double Decker Sandwich 12 • Двойной сэндвич 12
Год производства: 2008 г.
Страна: United States
Жанр: All Sex, Gonzo, Anal, Threesomes
Продолжительность: 02:38:45

Студия: Zero Tolerance Ent.
Режиссер: Quasarman (as Mike Quasar)

Язык: Английский
В ролях: Abbey Brooks, Aiden Starr, Evie Delatosso, Holly Halston, Kelly Summer, Melissa Lauren, Moxxie Maddron, Ricki White, Robyn Truelove, Sarah Wild, Shyla Stylez & Tanya James. James Deen, John Strong, Marco Banderas & Mick Blue

Описание:
If you're hungry for a tasty tit treat, then you'll enjoy a sexy serving from the delicious Double Decker menu.
Your appetite for a mile-high serving of breast meat, while working your throbbing kielbasa will be satisfied!
Don't forget to order a side of extra creamy dick dressing for your two huge helpings of mouth-watering mammaries.
Open wide and say, "Ahhhh" for the most scintillating tit-loving series in XXX.

Меню: Есть
Доп. материалы и бонусы:
* Interactive Menus
* Chapter Selection
* Photo Gallery
* Cum Shot Recap
* Trailers

Тип HD видео: 1080p
Качество видео: Blu-Ray
Формат видео: Blu-Ray Video
Контейнер: BDMV
Видео кодек: H.264/AVC
Аудио кодек: AC3
Видео: VC-1 Video / ~15000 Mbps / 1920x1080p / 23,976 fps / 16:9
Аудио: Dolby Digital Audio 2.0 / 48000 Hz / 192 kbps
Disc Title: Double Decker Sandwich 12 (2008) Blu-ray
Disc Size: 23 897 177 141 bytes
Protection: AACS
BD-Java: No
BDInfo: 0.5.8

Notes:

********************
PLAYLIST: 00001.MPLS
********************

<--- BEGIN FORUMS PASTE --->
Total   Video
Title                                                           Codec   Length  Movie Size      Disc Size       Bitrate Bitrate Main Audio Track                          Secondary Audio Track
-----                                                           ------  ------- --------------  --------------  ------- ------- ------------------                        ---------------------
00001.MPLS                                                      VC-1    2:38:45 19 069 580 544  23 897 177 141  16,02   15,05   DD AC3 2.0 192Kbps
DISC INFO:

Disc Title:     Double Decker Sandwich 12 (2008) Blu-ray
Disc Size:      23 897 177 141 bytes
Protection:     AACS
BD-Java:        No
BDInfo:         0.5.8

PLAYLIST REPORT:

Name:                   00001.MPLS
Length:                 2:38:45.641 (h:m:s.ms)
Size:                   19 069 580 544 bytes
Total Bitrate:          16,02 Mbps

VIDEO:

Codec                   Bitrate             Description
-----                   -------             -----------
VC-1 Video              15047 kbps          1080p / 23,976 fps / 16:9 / Advanced Profile 3

AUDIO:

Codec                           Language        Bitrate         Description
-----                           --------        -------         -----------
Dolby Digital Audio             English         192 kbps        2.0 / 48 kHz / 192 kbps / DN -4dB

FILES:

Name            Time In         Length          Size            Total Bitrate
----            -------         ------          ----            -------------
00001.M2TS      0:00:00.000     2:38:44.640     19 069 549 824  16 017
00012.M2TS      2:38:44.640     0:00:01.000     30 720          246

CHAPTERS:

Number          Time In         Length          Avg Video Rate  Max 1-Sec Rate  Max 1-Sec Time  Max 5-Sec Rate  Max 5-Sec Time  Max 10Sec Rate  Max 10Sec Time  Avg Frame Size  Max Frame Size  Max Frame Time
------          -------         ------          --------------  --------------  --------------  --------------  --------------  --------------  --------------  --------------  --------------  --------------
1               0:00:00.000     0:01:20.455     9 752 kbps      18 761 kbps     00:00:54.471    14 990 kbps     00:00:02.377    12 967 kbps     00:00:04.379    52 057 bytes    236 047 bytes   00:00:43.084
2               0:01:20.455     0:03:43.848     15 286 kbps     24 155 kbps     00:03:50.313    20 818 kbps     00:03:40.803    19 951 kbps     00:03:41.304    79 693 bytes    372 003 bytes   00:03:36.758
3               0:05:04.303     0:02:17.512     15 103 kbps     18 995 kbps     00:06:20.546    16 872 kbps     00:05:49.682    16 702 kbps     00:05:44.802    78 741 bytes    252 576 bytes   00:05:09.851
4               0:07:21.816     0:02:18.680     13 863 kbps     17 610 kbps     00:07:57.977    16 224 kbps     00:07:55.308    15 640 kbps     00:07:53.055    72 274 bytes    262 814 bytes   00:09:13.094
5               0:09:40.496     0:01:53.279     12 822 kbps     17 415 kbps     00:11:14.507    15 442 kbps     00:11:12.463    14 397 kbps     00:11:23.766    66 850 bytes    257 409 bytes   00:10:35.176
6               0:11:33.776     0:03:54.609     14 494 kbps     19 738 kbps     00:14:10.182    17 911 kbps     00:13:32.520    17 111 kbps     00:14:03.259    75 565 bytes    306 497 bytes   00:14:33.581
7               0:15:28.385     0:04:29.394     14 046 kbps     19 942 kbps     00:16:36.245    19 020 kbps     00:16:33.158    17 780 kbps     00:16:32.157    73 230 bytes    351 668 bytes   00:17:48.776
8               0:19:57.779     0:02:19.889     14 444 kbps     17 221 kbps     00:21:43.969    16 214 kbps     00:21:43.760    15 773 kbps     00:20:47.329    75 306 bytes    341 410 bytes   00:20:01.909
9               0:22:17.669     0:06:04.489     13 961 kbps     19 886 kbps     00:25:00.749    18 924 kbps     00:24:57.996    18 397 kbps     00:24:53.033    72 786 bytes    316 574 bytes   00:27:44.704
10              0:28:22.158     0:00:52.385     14 740 kbps     19 158 kbps     00:29:02.740    17 269 kbps     00:29:06.161    16 937 kbps     00:29:01.406    78 535 bytes    312 053 bytes   00:28:56.776
11              0:29:14.544     0:07:21.732     17 162 kbps     31 926 kbps     00:34:07.712    29 408 kbps     00:34:04.959    28 521 kbps     00:33:59.912    89 474 bytes    392 794 bytes   00:33:28.047
12              0:36:36.277     0:01:51.194     16 468 kbps     21 378 kbps     00:36:38.362    19 682 kbps     00:36:55.212    18 913 kbps     00:36:55.546    85 856 bytes    301 472 bytes   00:37:05.264
13              0:38:27.471     0:02:08.086     17 552 kbps     23 390 kbps     00:39:39.877    21 525 kbps     00:39:59.647    20 880 kbps     00:39:37.875    91 509 bytes    327 774 bytes   00:40:01.440
14              0:40:35.558     0:04:14.545     17 175 kbps     23 678 kbps     00:44:39.093    21 580 kbps     00:44:36.340    20 191 kbps     00:44:32.336    89 545 bytes    338 729 bytes   00:42:34.927
15              0:44:50.104     0:02:38.700     16 830 kbps     21 802 kbps     00:46:44.968    19 029 kbps     00:47:21.839    18 326 kbps     00:46:12.686    87 746 bytes    352 423 bytes   00:46:55.187
16              0:47:28.804     0:04:08.706     16 863 kbps     24 061 kbps     00:48:30.991    21 111 kbps     00:50:58.388    20 405 kbps     00:50:56.428    87 916 bytes    329 411 bytes   00:51:08.440
17              0:51:37.511     0:02:02.330     17 503 kbps     26 512 kbps     00:53:08.184    22 523 kbps     00:53:05.265    20 234 kbps     00:53:25.952    91 254 bytes    338 330 bytes   00:52:15.507
18              0:53:39.841     0:03:07.478     17 296 kbps     24 870 kbps     00:55:08.096    20 414 kbps     00:55:27.824    19 960 kbps     00:55:26.573    90 172 bytes    348 833 bytes   00:55:28.033
19              0:56:47.320     0:01:01.519     17 977 kbps     23 725 kbps     00:57:12.512    21 826 kbps     00:57:28.111    20 916 kbps     00:57:22.188    95 208 bytes    377 834 bytes   00:57:06.131
20              0:57:48.840     0:05:20.611     15 679 kbps     27 942 kbps     01:00:18.656    21 102 kbps     01:00:18.656    19 206 kbps     01:00:18.740    81 745 bytes    375 108 bytes   01:02:27.452
21              1:03:09.452     0:03:13.234     14 147 kbps     19 211 kbps     01:03:25.968    17 701 kbps     01:03:22.340    16 971 kbps     01:03:18.127    73 757 bytes    357 895 bytes   01:03:45.530
22              1:06:22.687     0:01:37.096     14 792 kbps     19 215 kbps     01:06:31.904    17 621 kbps     01:06:29.819    16 983 kbps     01:07:11.027    77 120 bytes    281 110 bytes   01:07:13.738
23              1:07:59.784     0:02:30.191     15 368 kbps     22 611 kbps     01:09:00.052    21 198 kbps     01:08:57.967    20 010 kbps     01:08:56.340    80 120 bytes    349 844 bytes   01:09:23.200
24              1:10:29.975     0:02:07.836     10 857 kbps     15 273 kbps     01:11:14.853    14 267 kbps     01:11:10.349    14 051 kbps     01:11:07.513    56 602 bytes    271 754 bytes   01:11:15.312
25              1:12:37.811     0:02:51.588     11 792 kbps     17 547 kbps     01:13:49.174    15 980 kbps     01:13:10.969    15 569 kbps     01:13:10.677    61 478 bytes    226 157 bytes   01:13:50.467
26              1:15:29.399     0:02:32.986     11 822 kbps     18 058 kbps     01:16:28.083    15 959 kbps     01:17:56.254    14 661 kbps     01:17:51.875    61 632 bytes    265 392 bytes   01:17:29.686
27              1:18:02.386     0:01:15.116     14 718 kbps     18 563 kbps     01:18:17.943    17 294 kbps     01:18:14.940    16 945 kbps     01:18:13.855    76 735 bytes    267 243 bytes   01:18:37.754
28              1:19:17.502     0:00:51.259     12 686 kbps     21 430 kbps     01:19:56.625    19 348 kbps     01:19:55.457    17 186 kbps     01:19:51.953    67 456 bytes    247 620 bytes   01:20:00.837
29              1:20:08.762     0:06:46.489     16 815 kbps     26 855 kbps     01:21:10.532    21 943 kbps     01:23:00.141    21 228 kbps     01:21:10.448    87 667 bytes    370 647 bytes   01:20:41.878
30              1:26:55.251     0:02:35.280     18 624 kbps     23 747 kbps     01:27:38.836    22 538 kbps     01:27:35.833    21 642 kbps     01:27:34.916    97 097 bytes    334 863 bytes   01:28:35.685
31              1:29:30.531     0:02:38.533     18 309 kbps     27 280 kbps     01:31:39.285    22 611 kbps     01:30:59.495    21 871 kbps     01:30:58.244    95 455 bytes    341 089 bytes   01:30:22.792
32              1:32:09.065     0:03:01.556     19 749 kbps     24 177 kbps     01:33:10.835    23 132 kbps     01:33:11.669    22 731 kbps     01:33:09.834    102 962 bytes   356 041 bytes   01:32:59.949
33              1:35:10.621     0:06:30.306     18 821 kbps     27 074 kbps     01:40:54.381    25 096 kbps     01:40:53.714    23 555 kbps     01:40:53.714    98 126 bytes    340 883 bytes   01:40:28.731
34              1:41:40.928     0:01:51.361     21 326 kbps     27 590 kbps     01:43:13.854    24 801 kbps     01:41:55.943    24 383 kbps     01:41:47.351    111 186 bytes   343 118 bytes   01:42:22.845
35              1:43:32.289     0:01:37.639     17 965 kbps     22 983 kbps     01:44:58.041    21 798 kbps     01:44:57.291    20 933 kbps     01:44:55.038    93 659 bytes    318 659 bytes   01:43:36.919
36              1:45:09.928     0:00:46.171     18 132 kbps     27 012 kbps     01:45:40.584    22 507 kbps     01:45:39.374    21 124 kbps     01:45:33.493    96 893 bytes    344 407 bytes   01:45:48.050
37              1:45:56.099     0:07:41.794     11 115 kbps     21 464 kbps     01:49:03.411    18 854 kbps     01:49:03.328    17 190 kbps     01:49:03.328    57 946 bytes    352 536 bytes   01:49:10.210
38              1:53:37.894     0:02:20.932     13 309 kbps     17 085 kbps     01:55:29.464    15 447 kbps     01:55:26.336    15 067 kbps     01:55:28.546    69 388 bytes    241 638 bytes   01:54:04.879
39              1:55:58.826     0:02:33.486     14 222 kbps     18 369 kbps     01:56:44.497    16 968 kbps     01:56:43.830    16 595 kbps     01:56:37.907    74 148 bytes    280 962 bytes   01:56:39.033
40              1:58:32.313     0:01:17.911     12 888 kbps     17 879 kbps     01:59:39.755    15 674 kbps     01:59:37.545    14 772 kbps     01:59:33.833    67 192 bytes    302 994 bytes   01:59:48.222
41              1:59:50.224     0:04:42.782     11 870 kbps     16 409 kbps     01:59:51.184    14 710 kbps     01:59:50.516    14 032 kbps     01:59:50.600    61 886 bytes    333 397 bytes   02:01:09.303
42              2:04:33.007     0:01:29.714     12 975 kbps     19 819 kbps     02:05:25.267    16 714 kbps     02:05:21.263    15 680 kbps     02:05:16.258    67 644 bytes    291 324 bytes   02:05:47.915
43              2:06:02.721     0:02:51.004     12 397 kbps     15 988 kbps     02:08:48.137    14 649 kbps     02:08:26.365    14 203 kbps     02:08:20.859    64 633 bytes    306 966 bytes   02:08:49.096
44              2:08:53.726     0:00:51.885     13 767 kbps     19 394 kbps     02:09:39.104    17 283 kbps     02:09:37.770    16 061 kbps     02:09:23.505    73 247 bytes    291 978 bytes   02:09:41.148
45              2:09:45.611     0:05:42.341     13 686 kbps     20 587 kbps     02:10:20.479    18 728 kbps     02:10:17.643    17 673 kbps     02:10:11.178    71 352 bytes    320 590 bytes   02:14:38.445
46              2:15:27.953     0:03:09.230     16 695 kbps     24 708 kbps     02:16:05.699    22 216 kbps     02:16:03.738    19 750 kbps     02:15:36.336    87 038 bytes    403 262 bytes   02:16:07.534
47              2:18:37.183     0:01:47.148     14 974 kbps     19 257 kbps     02:19:06.254    17 463 kbps     02:19:04.169    16 871 kbps     02:19:03.585    78 070 bytes    317 412 bytes   02:19:43.083
48              2:20:24.332     0:02:00.286     14 832 kbps     20 907 kbps     02:21:29.147    19 047 kbps     02:21:28.146    18 284 kbps     02:21:24.142    77 327 bytes    300 615 bytes   02:21:02.162
49              2:22:24.619     0:01:22.916     14 057 kbps     19 367 kbps     02:23:31.352    17 428 kbps     02:23:31.185    16 383 kbps     02:23:31.603    73 288 bytes    326 900 bytes   02:22:27.247
50              2:23:47.535     0:05:31.539     14 170 kbps     20 490 kbps     02:27:20.373    18 997 kbps     02:25:11.953    18 214 kbps     02:25:11.953    73 875 bytes    321 569 bytes   02:24:45.385
51              2:29:19.075     0:01:53.738     14 517 kbps     19 074 kbps     02:30:32.732    17 466 kbps     02:30:30.479    16 359 kbps     02:30:41.991    75 687 bytes    273 400 bytes   02:29:22.286
52              2:31:12.813     0:05:51.017     14 257 kbps     23 056 kbps     02:35:30.154    19 725 kbps     02:35:29.987    19 377 kbps     02:35:29.820    74 330 bytes    304 223 bytes   02:33:37.249
53              2:37:03.831     0:00:57.265     13 992 kbps     19 216 kbps     02:37:42.202    16 609 kbps     02:37:46.874    16 345 kbps     02:37:41.869    74 578 bytes    259 502 bytes   02:37:52.504
54              2:38:01.096     0:00:43.543     2 614 kbps      11 759 kbps     02:38:41.011    5 282 kbps      02:38:04.808    4 889 kbps      02:38:32.002    15 737 bytes    283 972 bytes   02:38:32.544
55              2:38:44.640     0:00:01.001     84 kbps         0 kbps          00:00:00.000    0 kbps          00:00:00.000    0 kbps          00:00:00.000    479 bytes       9 231 bytes     02:38:45.390

STREAM DIAGNOSTICS:

File            PID             Type            Codec           Language                Seconds                 Bitrate                 Bytes           Packets
----            ---             ----            -----           --------                --------------          --------------          -------------   -----
00001.M2TS      4113 (0x1011)   0xEA            VC-1                                    9570,186                14 999                  17 943 322 144  97 656 665
00001.M2TS      4352 (0x1100)   0x81            AC3             eng (English)           9570,186                192                     229 690 368     1 495 380
00012.M2TS      4113 (0x1011)   0xEA            VC-1                                    0,876                   181                     19 777          124
<---- END FORUMS PASTE ---->

QUICK SUMMARY:

Disc Title: Double Decker Sandwich 12 (2008) Blu-ray
Disc Size: 23 897 177 141 bytes
Protection: AACS
BD-Java: No
Playlist: 00001.MPLS
Size: 19 069 580 544 bytes
Length: 2:38:45.641
Total Bitrate: 16,02 Mbps
Video: VC-1 Video / 15047 kbps / 1080p / 23,976 fps / 16:9 / Advanced Profile 3
Audio: English / Dolby Digital Audio / 2.0 / 48 kHz / 192 kbps / DN -4dB

********************
PLAYLIST: 00003.MPLS
********************

<--- BEGIN FORUMS PASTE --->
Total   Video
Title                                                           Codec   Length  Movie Size      Disc Size       Bitrate Bitrate Main Audio Track                          Secondary Audio Track
-----                                                           ------  ------- --------------  --------------  ------- ------- ------------------                        ---------------------
00003.MPLS                                                      VC-1    0:20:08 2 413 701 120   23 897 177 141  15,98   15,01   DD AC3 2.0 192Kbps
DISC INFO:

Disc Title:     Double Decker Sandwich 12 (2008) Blu-ray
Disc Size:      23 897 177 141 bytes
Protection:     AACS
BD-Java:        No
BDInfo:         0.5.8

PLAYLIST REPORT:

Name:                   00003.MPLS
Length:                 0:20:08.582 (h:m:s.ms)
Size:                   2 413 701 120 bytes
Total Bitrate:          15,98 Mbps

VIDEO:

Codec                   Bitrate             Description
-----                   -------             -----------
VC-1 Video              15011 kbps          1080p / 23,976 fps / 16:9 / Advanced Profile 3

AUDIO:

Codec                           Language        Bitrate         Description
-----                           --------        -------         -----------
Dolby Digital Audio             English         192 kbps        2.0 / 48 kHz / 192 kbps / DN -4dB

FILES:

Name            Time In         Length          Size            Total Bitrate
----            -------         ------          ----            -------------
00003.M2TS      0:00:00.000     0:20:07.581     2 413 670 400   15 990
00012.M2TS      0:20:07.581     0:00:01.000     30 720          246

CHAPTERS:

Number          Time In         Length          Avg Video Rate  Max 1-Sec Rate  Max 1-Sec Time  Max 5-Sec Rate  Max 5-Sec Time  Max 10Sec Rate  Max 10Sec Time  Avg Frame Size  Max Frame Size  Max Frame Time
------          -------         ------          --------------  --------------  --------------  --------------  --------------  --------------  --------------  --------------  --------------  --------------
1               0:00:00.000     0:03:10.190     14 016 kbps     20 918 kbps     00:00:03.003    17 426 kbps     00:02:29.524    17 179 kbps     00:02:23.852    73 930 bytes    302 652 bytes   00:02:33.486
2               0:03:10.190     0:04:25.306     16 181 kbps     24 451 kbps     00:06:55.289    22 310 kbps     00:06:58.751    21 934 kbps     00:06:54.080    84 731 bytes    319 198 bytes   00:06:22.715
3               0:07:35.496     0:03:05.184     14 045 kbps     25 642 kbps     00:09:57.847    20 241 kbps     00:09:56.387    17 757 kbps     00:09:56.387    73 622 bytes    348 110 bytes   00:08:11.157
4               0:10:40.681     0:03:02.724     15 632 kbps     24 707 kbps     00:13:37.608    19 485 kbps     00:12:25.870    18 618 kbps     00:12:21.782    81 964 bytes    362 755 bytes   00:11:43.369
5               0:13:43.405     0:03:11.149     15 219 kbps     28 022 kbps     00:16:31.657    20 080 kbps     00:14:17.982    19 071 kbps     00:14:17.857    79 813 bytes    415 823 bytes   00:16:40.666
6               0:16:54.555     0:03:13.026     14 594 kbps     25 957 kbps     00:20:01.241    20 738 kbps     00:19:59.489    17 872 kbps     00:19:54.151    76 601 bytes    294 483 bytes   00:16:56.015
7               0:20:07.581     0:00:01.000     84 kbps         0 kbps          00:00:00.000    0 kbps          00:00:00.000    0 kbps          00:00:00.000    479 bytes       9 231 bytes     00:20:08.332

STREAM DIAGNOSTICS:

File            PID             Type            Codec           Language                Seconds                 Bitrate                 Bytes           Packets
----            ---             ----            -----           --------                --------------          --------------          -------------   -----
00003.M2TS      4113 (0x1011)   0xEA            VC-1                                    1207,498                15 024                  2 267 706 829   12 342 030
00003.M2TS      4352 (0x1100)   0x81            AC3             eng (English)           1207,498                192                     28 982 784      188 690
00012.M2TS      4113 (0x1011)   0xEA            VC-1                                    0,876                   181                     19 777          124
<---- END FORUMS PASTE ---->

QUICK SUMMARY:

Disc Title: Double Decker Sandwich 12 (2008) Blu-ray
Disc Size: 23 897 177 141 bytes
Protection: AACS
BD-Java: No
Playlist: 00003.MPLS
Size: 2 413 701 120 bytes
Length: 0:20:08.582
Total Bitrate: 15,98 Mbps
Video: VC-1 Video / 15011 kbps / 1080p / 23,976 fps / 16:9 / Advanced Profile 3
Audio: English / Dolby Digital Audio / 2.0 / 48 kHz / 192 kbps / DN -4dB

********************
PLAYLIST: 00008.MPLS
********************

<--- BEGIN FORUMS PASTE --->
Total   Video
Title                                                           Codec   Length  Movie Size      Disc Size       Bitrate Bitrate Main Audio Track                          Secondary Audio Track
-----                                                           ------  ------- --------------  --------------  ------- ------- ------------------                        ---------------------
00008.MPLS                                                      VC-1    0:12:39 1 226 754 048   23 897 177 141  12,93   12,08   DD AC3 2.0 192Kbps
DISC INFO:

Disc Title:     Double Decker Sandwich 12 (2008) Blu-ray
Disc Size:      23 897 177 141 bytes
Protection:     AACS
BD-Java:        No
BDInfo:         0.5.8

PLAYLIST REPORT:

Name:                   00008.MPLS
Length:                 0:12:39.191 (h:m:s.ms)
Size:                   1 226 754 048 bytes
Total Bitrate:          12,93 Mbps

VIDEO:

Codec                   Bitrate             Description
-----                   -------             -----------
VC-1 Video              12083 kbps          1080i / 29,970 fps / 16:9 / Advanced Profile 3

AUDIO:

Codec                           Language        Bitrate         Description
-----                           --------        -------         -----------
Dolby Digital Audio             English         192 kbps        2.0 / 48 kHz / 192 kbps / DN -4dB

FILES:

Name            Time In         Length          Size            Total Bitrate
----            -------         ------          ----            -------------
00006.M2TS      0:00:00.000     0:12:38.190     1 226 723 328   12 944
00013.M2TS      0:12:38.190     0:00:01.000     30 720          246

CHAPTERS:

Number          Time In         Length          Avg Video Rate  Max 1-Sec Rate  Max 1-Sec Time  Max 5-Sec Rate  Max 5-Sec Time  Max 10Sec Rate  Max 10Sec Time  Avg Frame Size  Max Frame Size  Max Frame Time
------          -------         ------          --------------  --------------  --------------  --------------  --------------  --------------  --------------  --------------  --------------  --------------
1               0:00:00.000     0:01:53.947     12 588 kbps     23 540 kbps     00:01:30.256    22 326 kbps     00:01:28.922    19 296 kbps     00:01:23.550    53 729 bytes    201 216 bytes   00:01:14.307
2               0:01:53.947     0:01:30.523     14 934 kbps     31 789 kbps     00:02:15.435    26 794 kbps     00:02:11.764    23 094 kbps     00:02:40.293    62 892 bytes    321 840 bytes   00:02:15.468
3               0:03:24.470     0:01:23.750     13 463 kbps     34 885 kbps     00:03:49.062    25 359 kbps     00:03:45.158    21 088 kbps     00:04:03.109    57 201 bytes    359 593 bytes   00:04:40.647
4               0:04:48.221     0:01:55.281     10 091 kbps     23 036 kbps     00:06:07.900    17 677 kbps     00:06:31.958    14 705 kbps     00:06:27.720    43 277 bytes    400 786 bytes   00:05:38.671
5               0:06:43.503     0:01:37.330     12 233 kbps     31 024 kbps     00:07:16.569    20 925 kbps     00:07:16.335    16 609 kbps     00:07:16.335    51 823 bytes    320 037 bytes   00:07:16.969
6               0:08:20.833     0:01:28.154     9 243 kbps      29 560 kbps     00:09:26.132    27 564 kbps     00:09:23.429    20 778 kbps     00:09:18.391    38 979 bytes    214 738 bytes   00:08:23.236
7               0:09:48.988     0:01:19.512     10 623 kbps     25 273 kbps     00:10:14.680    19 580 kbps     00:10:11.611    17 221 kbps     00:10:41.540    45 808 bytes    211 611 bytes   00:09:50.656
8               0:11:08.501     0:01:29.689     13 889 kbps     26 360 kbps     00:11:24.316    20 753 kbps     00:11:24.316    19 376 kbps     00:11:21.414    58 606 bytes    237 544 bytes   00:11:24.350
9               0:12:38.190     0:00:01.000     68 kbps         0 kbps          00:00:00.000    0 kbps          00:00:00.000    0 kbps          00:00:00.000    305 bytes       6 939 bytes     00:12:38.791

STREAM DIAGNOSTICS:

File            PID             Type            Codec           Language                Seconds                 Bitrate                 Bytes           Packets
----            ---             ----            -----           --------                --------------          --------------          -------------   -----
00006.M2TS      4113 (0x1011)   0xEA            VC-1                                    758,091                 12 100                  1 146 624 023   6 245 277
00006.M2TS      4352 (0x1100)   0x81            AC3             eng (English)           758,091                 192                     18 196 992      118 470
00013.M2TS      4113 (0x1011)   0xEA            VC-1                                    0,901                   138                     15 485          104
<---- END FORUMS PASTE ---->

QUICK SUMMARY:

Disc Title: Double Decker Sandwich 12 (2008) Blu-ray
Disc Size: 23 897 177 141 bytes
Protection: AACS
BD-Java: No
Playlist: 00008.MPLS
Size: 1 226 754 048 bytes
Length: 0:12:39.191
Total Bitrate: 12,93 Mbps
Video: VC-1 Video / 12083 kbps / 1080i / 29,970 fps / 16:9 / Advanced Profile 3
Audio: English / Dolby Digital Audio / 2.0 / 48 kHz / 192 kbps / DN -4dB
General #0
ID : 0 (0x0)
Complete name : Double Decker Sandwich 12 (2008) Blu-ray\BDMV\STREAM\00001.m2ts
Format : BDAV
Format/Info : Blu-ray Video
File size : 17.8 GiB
Duration : 2h 39mn
Overall bit rate : 16.0 Mbps
Maximum Overall bit rate : 48.0 Mbps
Video #4113
ID : 4113 (0x1011)
Menu ID : 1 (0x1)
Format : VC-1
Format profile : [email protected]
Codec ID : 234
Duration : 2h 39mn
Bit rate : 15.1 Mbps
Width : 1 920 pixels
Height : 1 080 pixels
Display aspect ratio : 16:9
Frame rate : 23.976 fps
Chroma subsampling : 4:2:0
Bit depth : 8 bits
Scan type : Progressive
Compression mode : Lossy
Bits/(Pixel*Frame) : 0.304
Stream size : 16.9 GiB (95%)
Audio #4352
ID : 4352 (0x1100)
Menu ID : 1 (0x1)
Format : AC-3
Format/Info : Audio Coding 3
Mode extension : CM (complete main)
Codec ID : 129
Duration : 2h 39mn
Bit rate mode : Constant
Bit rate : 192 Kbps
Channel(s) : 2 channels
Channel positions : Front: L R
Sampling rate : 48.0 KHz
Bit depth : 16 bits
Compression mode : Lossy
Stream size : 219 MiB (1%)
 
   
Торрент:
Зарегистрирован [20 окт 2015, 04:27]
Скачать торрент Магнет ссылка
Скачать торрент
[ Размер 115.74 КБ / Просмотров 2 ]
Статус:
Проверен
 
.torrent скачан: 0 раз
Хэш: b8b674dee1e6c0f72116c4292d0878ffbc5142e2
Размер: 22.26 ГБ (23 897 177 141 байт)
 

Вернуться в Гонзо-фильмы / Gonzo

Кто сейчас на конференции

Сейчас эту тему просматривают: нет зарегистрированных пользователей и гости: 1


Ресурс не предоставляет электронные версии произведений, а занимается лишь коллекционированием и каталогизацией ссылок, присылаемых и публикуемых на форуме нашими читателями. Если вы являетесь правообладателем какого-либо представленного материала и не желаете чтобы ссылка на него находилась в нашем каталоге, свяжитесь с нами и мы незамедлительно удалим её. Файлы для обмена на трекере предоставлены пользователями сайта, и администрация не несёт ответственности за их содержание. Просьба не заливать файлы, защищенные авторскими правами, а также файлы нелегального содержания!
cron