Performers of the Year 2012 / Лучшие исполнительницы 2012 (William H., Elegant Angel) [2011 г., All Sex, Anal, Gonzo, Hardcore, 1080p, 2x Blu-Ray]

 Статистика раздачи 
Размер: 38.38 ГБ   |  Зарегистрирован: 20 окт 2015, 04:21   |   .torrent скачан: 0 раз
Сидеров: 3  [ 0 байт/сек ]     Личеров: 2  [ 0 байт/сек ]  
  
Случайная аватара
Раздал: 2 ГБ
Скачал: 0 байт
Ратио: Seed.
Сообщения: 12530
Зарегистрирован: 15 окт 2015, 12:16

Performers of the Year 2012 / Лучшие исполнительницы 2012 (William H., Elegant Angel) [2011 г., All Sex, Anal, Gonzo, Hardcore, 1080p, 2x Blu-Ray]

Сообщение Tony Ribas » 20 окт 2015, 04:21

Performers Of The Year 2012 • Лучшие исполнительницы 2012

Год производства: 2011 г.
Страна: United States
Жанр: All Sex, Anal, Gonzo, Hardcore
Продолжительность: 04:26:14 (03:14:53 + 01:11:21)

Режиссер: William H. Nutsack (as William H.)
Студия: Elegant Angel

Язык: Английский

В ролях:
Asa Akira, Bobbi Starr, Gracie Glam, Jayden Jaymes, Kagney Linn Karter, Kristina Rose & Lexi Belle. James Deen, Jordan Ash, Manuel Ferrara & Michael Stefano

Описание:
Adult entertainment studio, Elegant Angel Productions, is proud to announce the latest volume of its annual series,
"Performers Of The Year 2012," scheduled for release on January 11th.
The movie will be a 2-Disc Set, featuring 7 scenes, and starring the biggest names of the year:
Asa Akira, Kagney Linn Karter, Kristina Rose, Gracie Glam, Lexi Belle, Jayden Jaymes, and Bobbi Starr.

Меню: Есть
Доп. материалы и бонусы:
* Interactive Menus
* Chapter Selection
* Making Of Featurette
* Web Site Information

* Bonus Scenes (Four bonus scenes on the second disc from movies like Battle of the Asses 2 (Kelly Divine, Ava Rose, & Michael Stefano) 39:09 minutes, The Bombshells (Andy San Dimas & Anthony Rosano) 28:18 minutes, Sex Appeal (Jynx Maze, Mick Blue & Toni Ribas) 44:36 minutes, and Battle of the Asses 3 (Jada Stevens & Mick Blue) 33:28 minutes.)

Тип HD видео: 1080p
Качество видео: Blu-Ray
Формат видео: Blu-Ray Video
Контейнер: BDMV
Видео кодек: H.264/AVC
Аудио кодек: AC3
Видео: VC-1 Video / ~12530 Mbps (DISC1) | ~11000 Mbps (DISC2) / 1080p / 23,976 fps / 16:9
Аудио: Dolby Digital Audio 2.0 / 48000 Hz / 256 kbps

PERFORMERS_OF_THE_YEAR_2012_D1
Disc Title: PERFORMERS_OF_THE_YEAR_2012_D1
Disc Size: 19 714 755 745 bytes
Protection: AACS
BD-Java: No
BDInfo: 0.5.8

********************
PLAYLIST: 00001.MPLS
********************

<--- BEGIN FORUMS PASTE --->
Total   Video
Title                                                           Codec   Length  Movie Size      Disc Size       Bitrate Bitrate Main Audio Track                          Secondary Audio Track
-----                                                           ------  ------- --------------  --------------  ------- ------- ------------------                        ---------------------
00001.MPLS                                                      VC-1    3:14:53 19 643 698 368  19 714 755 745  13,44   12,53   DD AC3 2.0 256Kbps
DISC INFO:

Disc Title:     PERFORMERS_OF_THE_YEAR_2012_D1
Disc Size:      19 714 755 745 bytes
Protection:     AACS
BD-Java:        No
BDInfo:         0.5.8

PLAYLIST REPORT:

Name:                   00001.MPLS
Length:                 3:14:53.848 (h:m:s.ms)
Size:                   19 643 698 368 bytes
Total Bitrate:          13,44 Mbps

VIDEO:

Codec                   Bitrate             Description
-----                   -------             -----------
VC-1 Video              12532 kbps          1080p / 23,976 fps / 16:9 / Advanced Profile 3

AUDIO:

Codec                           Language        Bitrate         Description
-----                           --------        -------         -----------
Dolby Digital Audio             English         256 kbps        2.0 / 48 kHz / 256 kbps / DN -4dB

FILES:

Name            Time In         Length          Size            Total Bitrate
----            -------         ------          ----            -------------
00000.M2TS      0:00:00.000     3:14:52.847     19 643 667 648  13 440
00014.M2TS      3:14:52.847     0:00:01.000     30 720          246

CHAPTERS:

Number          Time In         Length          Avg Video Rate  Max 1-Sec Rate  Max 1-Sec Time  Max 5-Sec Rate  Max 5-Sec Time  Max 10Sec Rate  Max 10Sec Time  Avg Frame Size  Max Frame Size  Max Frame Time
------          -------         ------          --------------  --------------  --------------  --------------  --------------  --------------  --------------  --------------  --------------  --------------
1               0:00:00.000     0:09:59.557     11 213 kbps     33 374 kbps     00:03:45.183    24 024 kbps     00:07:33.369    20 629 kbps     00:03:45.099    58 704 bytes    428 548 bytes   00:03:45.224
2               0:09:59.557     0:04:53.459     11 158 kbps     17 903 kbps     00:14:11.392    16 391 kbps     00:14:08.681    15 125 kbps     00:14:04.134    58 320 bytes    262 656 bytes   00:10:50.608
3               0:14:53.017     0:04:08.998     12 523 kbps     18 264 kbps     00:18:46.125    17 117 kbps     00:18:44.665    16 541 kbps     00:18:37.449    65 533 bytes    212 484 bytes   00:15:03.861
4               0:19:02.015     0:04:10.917     13 650 kbps     17 269 kbps     00:20:07.623    16 364 kbps     00:19:20.909    15 757 kbps     00:19:19.491    71 162 bytes    231 866 bytes   00:19:17.114
5               0:23:12.933     0:03:02.390     14 203 kbps     18 592 kbps     00:24:13.326    17 551 kbps     00:24:12.451    16 732 kbps     00:24:12.450    74 049 bytes    236 304 bytes   00:25:48.129
6               0:26:15.323     0:04:39.362     14 323 kbps     17 824 kbps     00:27:30.273    16 696 kbps     00:27:40.367    16 506 kbps     00:27:37.030    74 673 bytes    219 916 bytes   00:29:23.344
7               0:30:54.686     0:03:53.441     12 685 kbps     16 327 kbps     00:32:49.759    15 321 kbps     00:32:49.425    14 696 kbps     00:32:48.299    66 134 bytes    200 423 bytes   00:34:42.830
8               0:34:48.127     0:05:00.341     14 018 kbps     17 036 kbps     00:39:07.136    16 552 kbps     00:39:09.221    16 398 kbps     00:39:05.718    73 082 bytes    205 185 bytes   00:38:50.077
9               0:39:48.469     0:03:48.937     13 099 kbps     16 061 kbps     00:39:48.844    15 094 kbps     00:39:54.016    15 008 kbps     00:39:48.844    68 291 bytes    191 629 bytes   00:40:10.157
10              0:43:37.406     0:04:07.830     13 257 kbps     16 841 kbps     00:47:33.725    15 632 kbps     00:47:17.709    15 048 kbps     00:47:30.931    69 115 bytes    204 573 bytes   00:45:31.729
11              0:47:45.237     0:01:42.310     12 377 kbps     16 181 kbps     00:48:01.837    14 854 kbps     00:47:45.404    13 943 kbps     00:47:45.237    64 526 bytes    194 429 bytes   00:47:59.877
12              0:49:27.547     0:04:28.351     13 549 kbps     18 691 kbps     00:49:44.356    15 977 kbps     00:49:42.771    15 434 kbps     00:49:42.771    70 638 bytes    184 697 bytes   00:52:19.302
13              0:53:55.899     0:03:06.436     11 944 kbps     15 568 kbps     00:54:35.772    14 716 kbps     00:54:35.730    14 150 kbps     00:54:07.244    62 609 bytes    208 479 bytes   00:56:48.571
14              0:57:02.335     0:04:23.096     14 733 kbps     30 467 kbps     00:57:41.583    25 799 kbps     00:57:41.583    23 928 kbps     00:57:41.207    76 859 bytes    362 177 bytes   00:57:43.543
15              1:01:25.431     0:03:26.206     18 313 kbps     36 730 kbps     01:02:06.681    27 367 kbps     01:02:03.803    23 682 kbps     01:02:02.760    95 632 bytes    467 777 bytes   01:02:06.723
16              1:04:51.637     0:01:37.055     13 888 kbps     16 322 kbps     01:05:46.359    15 300 kbps     01:05:46.317    14 840 kbps     01:05:43.189    72 404 bytes    228 941 bytes   01:05:37.308
17              1:06:28.693     0:02:16.427     14 002 kbps     15 932 kbps     01:07:26.876    15 118 kbps     01:07:55.696    14 916 kbps     01:07:50.399    73 000 bytes    230 453 bytes   01:07:27.418
18              1:08:45.121     0:02:50.795     14 568 kbps     16 560 kbps     01:10:06.118    15 834 kbps     01:10:03.198    15 592 kbps     01:10:02.197    75 952 bytes    213 755 bytes   01:09:21.532
19              1:11:35.916     0:03:56.611     14 051 kbps     16 433 kbps     01:14:25.169    15 841 kbps     01:14:23.083    15 263 kbps     01:14:22.916    73 257 bytes    237 974 bytes   01:15:27.272
20              1:15:32.528     0:02:00.203     13 651 kbps     16 172 kbps     01:15:47.251    15 042 kbps     01:15:45.999    14 567 kbps     01:15:44.081    71 169 bytes    237 041 bytes   01:15:37.282
21              1:17:32.731     0:02:48.877     14 203 kbps     16 675 kbps     01:18:35.127    15 955 kbps     01:18:31.248    15 631 kbps     01:18:26.243    74 050 bytes    196 429 bytes   01:18:23.448
22              1:20:21.608     0:05:01.467     13 054 kbps     16 604 kbps     01:23:40.974    15 143 kbps     01:23:33.133    14 715 kbps     01:23:33.133    68 056 bytes    204 377 bytes   01:24:55.090
23              1:25:23.076     0:05:38.713     13 712 kbps     16 234 kbps     01:31:00.413    15 346 kbps     01:25:53.106    15 195 kbps     01:25:49.936    71 490 bytes    207 046 bytes   01:25:42.137
24              1:31:01.789     0:00:42.208     13 262 kbps     16 948 kbps     01:31:03.040    15 647 kbps     01:31:03.082    14 684 kbps     01:31:02.707    70 750 bytes    190 005 bytes   01:31:30.109
25              1:31:43.998     0:06:54.414     6 839 kbps      13 296 kbps     01:37:21.627    12 376 kbps     01:37:20.167    11 134 kbps     01:37:16.872    35 761 bytes    185 621 bytes   01:36:03.758
26              1:38:38.412     0:03:18.364     8 963 kbps      15 235 kbps     01:40:52.087    14 102 kbps     01:39:51.276    13 471 kbps     01:40:45.122    47 055 bytes    206 974 bytes   01:40:34.194
27              1:41:56.777     0:01:53.029     11 116 kbps     13 618 kbps     01:42:36.692    12 843 kbps     01:42:34.648    12 637 kbps     01:43:17.649    57 954 bytes    195 588 bytes   01:43:15.772
28              1:43:49.806     0:02:50.795     10 774 kbps     14 115 kbps     01:45:31.700    13 634 kbps     01:45:34.911    13 460 kbps     01:45:30.949    56 171 bytes    189 184 bytes   01:45:11.305
29              1:46:40.602     0:01:47.816     11 288 kbps     14 793 kbps     01:46:46.525    13 929 kbps     01:46:44.189    13 415 kbps     01:47:41.997    58 848 bytes    197 194 bytes   01:47:44.458
30              1:48:28.418     0:02:53.631     12 283 kbps     14 788 kbps     01:50:44.512    14 339 kbps     01:50:42.093    13 835 kbps     01:50:39.674    64 039 bytes    193 889 bytes   01:48:45.519
31              1:51:22.050     0:04:15.713     10 566 kbps     16 068 kbps     01:53:45.777    13 984 kbps     01:53:44.359    13 703 kbps     01:53:45.401    55 085 bytes    172 168 bytes   01:53:45.818
32              1:55:37.764     0:02:38.366     10 391 kbps     13 701 kbps     01:57:42.013    12 732 kbps     01:56:38.992    12 212 kbps     01:56:39.033    54 175 bytes    172 919 bytes   01:56:54.007
33              1:58:16.130     0:03:56.611     12 695 kbps     15 860 kbps     01:59:24.365    14 607 kbps     01:58:56.295    14 577 kbps     01:58:57.338    66 185 bytes    187 463 bytes   01:59:48.181
34              2:02:12.742     0:05:34.876     12 544 kbps     15 827 kbps     02:03:06.253    15 413 kbps     02:03:06.253    15 198 kbps     02:02:13.784    65 397 bytes    193 646 bytes   02:07:21.634
35              2:07:47.618     0:05:11.185     9 985 kbps      16 230 kbps     02:12:57.386    15 665 kbps     02:12:53.799    15 420 kbps     02:12:48.794    52 058 bytes    160 031 bytes   02:12:48.919
36              2:12:58.804     0:00:47.797     13 327 kbps     16 499 kbps     02:12:58.804    15 976 kbps     02:12:58.971    15 182 kbps     02:12:58.804    70 652 bytes    167 503 bytes   02:13:41.972
37              2:13:46.601     0:05:02.343     10 939 kbps     15 788 kbps     02:16:58.877    14 944 kbps     02:15:53.186    14 084 kbps     02:15:52.561    57 282 bytes    223 981 bytes   02:16:51.161
38              2:18:48.945     0:04:33.064     10 470 kbps     15 062 kbps     02:21:03.872    14 264 kbps     02:21:01.286    13 656 kbps     02:19:32.280    54 786 bytes    218 459 bytes   02:20:59.409
39              2:23:22.010     0:01:36.971     12 665 kbps     14 671 kbps     02:23:49.746    13 961 kbps     02:23:49.746    13 670 kbps     02:23:45.783    66 028 bytes    195 216 bytes   02:24:22.945
40              2:24:58.981     0:02:10.713     12 986 kbps     15 450 kbps     02:26:30.072    15 152 kbps     02:26:28.488    15 008 kbps     02:26:27.695    67 704 bytes    175 907 bytes   02:25:56.748
41              2:27:09.695     0:03:11.774     12 675 kbps     16 085 kbps     02:28:13.092    15 277 kbps     02:28:12.925    14 601 kbps     02:28:12.925    66 080 bytes    158 001 bytes   02:27:09.821
42              2:30:21.470     0:01:42.060     12 692 kbps     15 589 kbps     02:31:05.097    15 106 kbps     02:31:03.429    14 584 kbps     02:31:00.926    66 170 bytes    203 519 bytes   02:32:03.114
43              2:32:03.531     0:02:30.733     13 943 kbps     18 270 kbps     02:34:14.036    17 191 kbps     02:33:19.773    16 133 kbps     02:34:07.112    72 695 bytes    194 151 bytes   02:34:23.128
44              2:34:34.265     0:02:40.285     13 334 kbps     16 671 kbps     02:35:03.627    15 884 kbps     02:35:03.544    15 386 kbps     02:35:01.709    69 517 bytes    191 645 bytes   02:37:08.293
45              2:37:14.550     0:04:59.549     14 461 kbps     17 150 kbps     02:41:12.788    16 464 kbps     02:41:10.911    15 852 kbps     02:41:05.906    75 392 bytes    202 815 bytes   02:38:40.385
46              2:42:14.099     0:00:35.452     13 283 kbps     15 854 kbps     02:42:33.243    15 349 kbps     02:42:21.523    14 946 kbps     02:42:21.231    70 579 bytes    210 210 bytes   02:42:17.352
47              2:42:49.551     0:04:21.094     12 559 kbps     19 137 kbps     02:46:30.063    16 912 kbps     02:46:28.937    15 844 kbps     02:46:24.683    65 488 bytes    215 718 bytes   02:44:08.463
48              2:47:10.645     0:03:03.683     12 161 kbps     23 076 kbps     02:49:38.751    21 100 kbps     02:49:37.167    19 596 kbps     02:49:33.079    63 762 bytes    248 466 bytes   02:49:45.842
49              2:50:14.329     0:01:05.565     15 006 kbps     18 107 kbps     02:50:15.330    16 133 kbps     02:51:11.844    15 877 kbps     02:51:09.425    78 233 bytes    208 581 bytes   02:50:29.594
50              2:51:19.894     0:02:08.795     14 082 kbps     16 247 kbps     02:51:49.882    15 890 kbps     02:51:24.691    15 733 kbps     02:51:23.272    73 416 bytes    218 485 bytes   02:53:15.760
51              2:53:28.689     0:03:09.856     13 191 kbps     15 930 kbps     02:56:10.601    15 312 kbps     02:56:09.308    14 870 kbps     02:56:06.931    68 772 bytes    194 491 bytes   02:55:35.900
52              2:56:38.546     0:06:41.651     14 388 kbps     19 312 kbps     03:02:09.501    18 774 kbps     03:01:55.321    18 457 kbps     03:01:51.650    75 012 bytes    233 655 bytes   03:02:06.624
53              3:03:20.197     0:04:59.590     11 689 kbps     14 477 kbps     03:08:15.742    13 033 kbps     03:07:17.851    12 740 kbps     03:06:11.326    60 939 bytes    160 326 bytes   03:05:59.857
54              3:08:19.788     0:04:40.363     12 776 kbps     17 565 kbps     03:12:11.228    14 509 kbps     03:12:09.059    14 266 kbps     03:10:56.486    66 609 bytes    187 497 bytes   03:12:06.515
55              3:13:00.151     0:01:12.947     12 915 kbps     17 473 kbps     03:13:27.637    16 090 kbps     03:13:14.541    15 437 kbps     03:13:10.870    67 917 bytes    206 651 bytes   03:13:06.575
56              3:14:13.099     0:00:39.748     2 402 kbps      6 115 kbps      03:14:27.072    4 407 kbps      03:14:23.026    3 143 kbps      03:14:21.650    14 448 bytes    171 186 bytes   03:14:28.657
57              3:14:52.847     0:00:01.001     84 kbps         0 kbps          00:00:00.000    0 kbps          00:00:00.000    0 kbps          00:00:00.000    479 bytes       9 231 bytes     03:14:53.598

STREAM DIAGNOSTICS:

File            PID             Type            Codec           Language                Seconds                 Bitrate                 Bytes           Packets
----            ---             ----            -----           --------                --------------          --------------          -------------   -----
00000.M2TS      4113 (0x1011)   0xEA            VC-1                                    11719,750               12 509                  18 325 293 451  99 763 741
00000.M2TS      4352 (0x1100)   0x81            AC3             eng (English)           11719,750               256                     375 035 904     2 197 476
00014.M2TS      4113 (0x1011)   0xEA            VC-1                                    0,876                   181                     19 777          124
<---- END FORUMS PASTE ---->

QUICK SUMMARY:

Disc Title: PERFORMERS_OF_THE_YEAR_2012_D1
Disc Size: 19 714 755 745 bytes
Protection: AACS
BD-Java: No
Playlist: 00001.MPLS
Size: 19 643 698 368 bytes
Length: 3:14:53.848
Total Bitrate: 13,44 Mbps
Video: VC-1 Video / 12532 kbps / 1080p / 23,976 fps / 16:9 / Advanced Profile 3
Audio: English / Dolby Digital Audio / 2.0 / 48 kHz / 256 kbps / DN -4dB

PERFORMERS_OF_THE_YEAR_2012_D2
Disc Title: PERFORMERS_OF_THE_YEAR_2012_D2
Disc Size: 21 493 420 918 bytes
Protection: AACS
BD-Java: No
BDInfo: 0.5.8

********************
PLAYLIST: 00001.MPLS
********************

<--- BEGIN FORUMS PASTE --->
Total   Video
Title                                                           Codec   Length  Movie Size      Disc Size       Bitrate Bitrate Main Audio Track                          Secondary Audio Track
-----                                                           ------  ------- --------------  --------------  ------- ------- ------------------                        ---------------------
00001.MPLS                                                      VC-1    1:11:21 6 373 006 848   21 493 420 918  11,91   11,07   DD AC3 2.0 256Kbps
DISC INFO:

Disc Title:     PERFORMERS_OF_THE_YEAR_2012_D2
Disc Size:      21 493 420 918 bytes
Protection:     AACS
BD-Java:        No
BDInfo:         0.5.8

PLAYLIST REPORT:

Name:                   00001.MPLS
Length:                 1:11:21.026 (h:m:s.ms)
Size:                   6 373 006 848 bytes
Total Bitrate:          11,91 Mbps

VIDEO:

Codec                   Bitrate             Description
-----                   -------             -----------
VC-1 Video              11067 kbps          1080p / 23,976 fps / 16:9 / Advanced Profile 3

AUDIO:

Codec                           Language        Bitrate         Description
-----                           --------        -------         -----------
Dolby Digital Audio             English         256 kbps        2.0 / 48 kHz / 256 kbps / DN -4dB

FILES:

Name            Time In         Length          Size            Total Bitrate
----            -------         ------          ----            -------------
00000.M2TS      0:00:00.000     1:11:20.025     6 372 976 128   11 912
00014.M2TS      1:11:20.025     0:00:01.000     30 720          246

CHAPTERS:

Number          Time In         Length          Avg Video Rate  Max 1-Sec Rate  Max 1-Sec Time  Max 5-Sec Rate  Max 5-Sec Time  Max 10Sec Rate  Max 10Sec Time  Avg Frame Size  Max Frame Size  Max Frame Time
------          -------         ------          --------------  --------------  --------------  --------------  --------------  --------------  --------------  --------------  --------------  --------------
1               0:00:00.000     0:06:22.507     11 635 kbps     16 472 kbps     00:04:45.410    14 792 kbps     00:05:49.057    14 256 kbps     00:05:48.097    60 660 bytes    255 540 bytes   00:01:54.656
2               0:06:22.507     0:03:44.390     11 419 kbps     20 304 kbps     00:09:51.132    19 603 kbps     00:09:41.831    19 292 kbps     00:09:41.914    59 899 bytes    284 746 bytes   00:09:43.207
3               0:10:06.897     0:01:27.462     10 993 kbps     13 430 kbps     00:11:23.432    12 634 kbps     00:11:23.182    12 390 kbps     00:11:17.093    57 314 bytes    192 913 bytes   00:11:04.288
4               0:11:34.360     0:02:10.421     10 932 kbps     12 833 kbps     00:11:50.209    11 767 kbps     00:12:16.736    11 625 kbps     00:12:54.523    56 992 bytes    198 827 bytes   00:11:37.321
5               0:13:44.782     0:01:38.807     10 810 kbps     12 660 kbps     00:14:35.374    11 956 kbps     00:14:34.498    11 734 kbps     00:14:29.493    56 356 bytes    180 991 bytes   00:14:43.507
6               0:15:23.589     0:02:44.414     10 398 kbps     12 671 kbps     00:16:04.755    12 304 kbps     00:16:04.088    11 977 kbps     00:16:04.338    54 208 bytes    153 934 bytes   00:17:19.204
7               0:18:08.003     0:02:03.123     10 083 kbps     13 154 kbps     00:18:18.806    11 594 kbps     00:18:25.312    11 455 kbps     00:18:25.312    52 568 bytes    181 783 bytes   00:19:41.346
8               0:20:11.126     0:04:49.956     9 634 kbps      13 280 kbps     00:21:05.472    12 688 kbps     00:21:05.389    12 598 kbps     00:21:05.389    50 227 bytes    201 127 bytes   00:21:04.429
9               0:25:01.082     0:02:16.094     10 155 kbps     11 565 kbps     00:25:54.135    11 029 kbps     00:25:54.135    10 925 kbps     00:25:53.134    52 942 bytes    185 694 bytes   00:25:13.053
10              0:27:17.177     0:02:05.458     12 836 kbps     16 274 kbps     00:29:14.627    15 719 kbps     00:29:13.293    15 547 kbps     00:29:09.664    66 921 bytes    192 450 bytes   00:29:18.214
11              0:29:22.635     0:00:41.875     10 512 kbps     13 150 kbps     00:29:22.635    11 965 kbps     00:29:37.942    11 716 kbps     00:29:36.649    55 862 bytes    146 726 bytes   00:29:23.219
12              0:30:04.511     0:07:11.889     10 204 kbps     14 570 kbps     00:31:56.623    13 104 kbps     00:35:53.901    12 550 kbps     00:35:52.650    53 216 bytes    233 396 bytes   00:34:01.414
13              0:37:16.400     0:02:57.385     11 493 kbps     15 723 kbps     00:38:49.368    15 054 kbps     00:38:49.368    13 917 kbps     00:38:48.617    59 948 bytes    238 783 bytes   00:38:33.227
14              0:40:13.786     0:01:10.612     11 674 kbps     13 623 kbps     00:40:54.827    13 194 kbps     00:40:53.784    12 921 kbps     00:40:51.782    60 862 bytes    182 296 bytes   00:41:07.756
15              0:41:24.398     0:01:42.852     12 249 kbps     13 739 kbps     00:42:23.624    13 264 kbps     00:42:49.900    13 057 kbps     00:42:50.818    63 860 bytes    192 297 bytes   00:42:25.834
16              0:43:07.251     0:03:56.527     12 569 kbps     14 802 kbps     00:46:57.272    14 137 kbps     00:45:09.790    13 589 kbps     00:45:05.869    65 531 bytes    192 193 bytes   00:45:44.283
17              0:47:03.779     0:04:50.748     12 613 kbps     14 927 kbps     00:49:07.569    14 277 kbps     00:49:11.990    14 146 kbps     00:49:07.486    65 758 bytes    186 554 bytes   00:47:27.845
18              0:51:54.528     0:02:16.094     11 616 kbps     13 924 kbps     00:53:21.031    13 248 kbps     00:52:41.032    12 652 kbps     00:52:36.611    60 563 bytes    171 375 bytes   00:53:14.065
19              0:54:10.622     0:03:33.838     11 924 kbps     14 594 kbps     00:57:34.284    13 557 kbps     00:56:43.274    13 415 kbps     00:56:43.024    62 168 bytes    187 627 bytes   00:54:27.806
20              0:57:44.461     0:04:00.531     11 690 kbps     13 661 kbps     00:58:42.602    12 917 kbps     01:00:00.722    12 724 kbps     01:00:03.182    60 948 bytes    176 538 bytes   01:01:33.898
21              1:01:44.992     0:05:59.650     11 051 kbps     13 253 kbps     01:06:57.805    12 577 kbps     01:06:46.627    12 482 kbps     01:07:32.339    57 614 bytes    170 850 bytes   01:07:32.798
22              1:07:44.643     0:01:01.060     12 092 kbps     13 267 kbps     01:08:23.224    12 572 kbps     01:08:23.474    12 458 kbps     01:08:23.474    63 044 bytes    152 429 bytes   01:07:44.810
23              1:08:45.704     0:00:58.558     11 905 kbps     16 972 kbps     01:09:10.980    14 546 kbps     01:09:08.227    13 825 kbps     01:09:03.472    62 557 bytes    184 141 bytes   01:09:23.701
24              1:09:44.263     0:01:10.069     2 415 kbps      9 161 kbps      01:10:10.706    5 427 kbps      01:10:10.456    4 297 kbps      01:10:08.037    13 210 bytes    160 028 bytes   01:10:11.081
25              1:10:54.333     0:00:25.692     1 520 kbps      4 590 kbps      01:10:54.333    2 044 kbps      01:10:58.170    1 914 kbps      01:10:54.333    9 405 bytes     128 717 bytes   01:10:56.210
26              1:11:20.025     0:00:01.001     84 kbps         0 kbps          00:00:00.000    0 kbps          00:00:00.000    0 kbps          00:00:00.000    479 bytes       9 231 bytes     01:11:20.776

STREAM DIAGNOSTICS:

File            PID             Type            Codec           Language                Seconds                 Bitrate                 Bytes           Packets
----            ---             ----            -----           --------                --------------          --------------          -------------   -----
00000.M2TS      4113 (0x1011)   0xEA            VC-1                                    4306,385                11 012                  5 927 982 650   32 279 557
00000.M2TS      4352 (0x1100)   0x81            AC3             eng (English)           4306,385                256                     137 807 872     807 468
00014.M2TS      4113 (0x1011)   0xEA            VC-1                                    0,876                   181                     19 777          124
<---- END FORUMS PASTE ---->

QUICK SUMMARY:

Disc Title: PERFORMERS_OF_THE_YEAR_2012_D2
Disc Size: 21 493 420 918 bytes
Protection: AACS
BD-Java: No
Playlist: 00001.MPLS
Size: 6 373 006 848 bytes
Length: 1:11:21.026
Total Bitrate: 11,91 Mbps
Video: VC-1 Video / 11067 kbps / 1080p / 23,976 fps / 16:9 / Advanced Profile 3
Audio: English / Dolby Digital Audio / 2.0 / 48 kHz / 256 kbps / DN -4dB

********************
PLAYLIST: 00010.MPLS
********************

<--- BEGIN FORUMS PASTE --->
Total   Video
Title                                                           Codec   Length  Movie Size      Disc Size       Bitrate Bitrate Main Audio Track                          Secondary Audio Track
-----                                                           ------  ------- --------------  --------------  ------- ------- ------------------                        ---------------------
00010.MPLS                                                      VC-1    0:44:36 3 919 393 152   21 493 420 918  11,72   10,87   DD AC3 2.0 256Kbps
DISC INFO:

Disc Title:     PERFORMERS_OF_THE_YEAR_2012_D2
Disc Size:      21 493 420 918 bytes
Protection:     AACS
BD-Java:        No
BDInfo:         0.5.8

PLAYLIST REPORT:

Name:                   00010.MPLS
Length:                 0:44:36.256 (h:m:s.ms)
Size:                   3 919 393 152 bytes
Total Bitrate:          11,72 Mbps

VIDEO:

Codec                   Bitrate             Description
-----                   -------             -----------
VC-1 Video              10869 kbps          1080p / 23,976 fps / 16:9 / Advanced Profile 3

AUDIO:

Codec                           Language        Bitrate         Description
-----                           --------        -------         -----------
Dolby Digital Audio             English         256 kbps        2.0 / 48 kHz / 256 kbps / DN -4dB

FILES:

Name            Time In         Length          Size            Total Bitrate
----            -------         ------          ----            -------------
00011.M2TS      0:00:00.000     0:44:35.255     3 919 362 432   11 720
00014.M2TS      0:44:35.255     0:00:01.000     30 720          246

CHAPTERS:

Number          Time In         Length          Avg Video Rate  Max 1-Sec Rate  Max 1-Sec Time  Max 5-Sec Rate  Max 5-Sec Time  Max 10Sec Rate  Max 10Sec Time  Avg Frame Size  Max Frame Size  Max Frame Time
------          -------         ------          --------------  --------------  --------------  --------------  --------------  --------------  --------------  --------------  --------------  --------------
1               0:00:00.000     0:04:08.248     9 141 kbps      14 473 kbps     00:00:02.460    12 465 kbps     00:00:01.584    11 732 kbps     00:02:24.144    47 836 bytes    187 680 bytes   00:00:58.349
2               0:04:08.248     0:04:52.417     10 306 kbps     13 631 kbps     00:05:49.640    12 577 kbps     00:05:45.720    12 120 kbps     00:05:40.631    53 754 bytes    154 579 bytes   00:05:45.011
3               0:09:00.665     0:02:05.875     10 271 kbps     12 961 kbps     00:10:55.363    12 085 kbps     00:10:54.195    11 695 kbps     00:10:52.526    53 548 bytes    162 525 bytes   00:10:55.988
4               0:11:06.540     0:02:21.182     10 816 kbps     13 123 kbps     00:11:44.662    12 475 kbps     00:11:42.743    12 185 kbps     00:11:41.992    56 425 bytes    151 725 bytes   00:11:11.003
5               0:13:27.723     0:03:10.273     11 389 kbps     13 595 kbps     00:15:18.250    12 700 kbps     00:15:17.958    12 408 kbps     00:15:17.958    59 414 bytes    163 896 bytes   00:14:54.894
6               0:16:37.997     0:00:42.584     11 544 kbps     12 828 kbps     00:16:50.134    12 272 kbps     00:16:46.380    11 978 kbps     00:16:42.376    60 184 bytes    145 836 bytes   00:16:48.007
7               0:17:20.581     0:02:27.480     10 819 kbps     14 635 kbps     00:19:32.713    13 365 kbps     00:19:28.667    13 003 kbps     00:19:28.667    56 599 bytes    161 932 bytes   00:19:41.847
8               0:19:48.061     0:01:51.194     12 135 kbps     16 006 kbps     00:21:17.901    15 222 kbps     00:21:29.079    14 454 kbps     00:21:27.327    63 455 bytes    185 402 bytes   00:21:21.029
9               0:21:39.256     0:02:17.554     12 544 kbps     16 217 kbps     00:21:46.013    15 656 kbps     00:21:46.096    15 283 kbps     00:21:45.929    66 122 bytes    186 289 bytes   00:22:10.078
10              0:23:56.810     0:04:42.532     11 783 kbps     17 391 kbps     00:24:05.485    15 211 kbps     00:24:05.485    14 992 kbps     00:24:05.360    62 606 bytes    185 142 bytes   00:28:02.514
11              0:28:39.342     0:01:11.112     11 850 kbps     18 252 kbps     00:29:11.458    16 055 kbps     00:29:08.830    14 689 kbps     00:29:03.199    62 888 bytes    179 186 bytes   00:29:01.573
12              0:29:50.455     0:03:08.229     10 944 kbps     14 983 kbps     00:32:11.721    13 619 kbps     00:32:09.719    13 362 kbps     00:32:08.801    58 046 bytes    175 421 bytes   00:32:25.944
13              0:32:58.685     0:06:11.788     10 816 kbps     15 666 kbps     00:33:19.038    14 348 kbps     00:33:19.330    13 766 kbps     00:33:36.889    57 905 bytes    200 034 bytes   00:39:09.805
14              0:39:10.473     0:04:09.666     10 420 kbps     12 911 kbps     00:39:14.101    11 994 kbps     00:39:14.101    11 655 kbps     00:39:10.848    55 135 bytes    191 820 bytes   00:39:12.808
15              0:43:20.139     0:01:15.116     10 657 kbps     12 256 kbps     00:43:29.481    11 824 kbps     00:43:21.557    11 716 kbps     00:43:20.556    56 218 bytes    154 449 bytes   00:44:24.661
16              0:44:35.255     0:00:01.000     84 kbps         0 kbps          00:00:00.000    0 kbps          00:00:00.000    0 kbps          00:00:00.000    479 bytes       9 231 bytes     00:44:36.006

STREAM DIAGNOSTICS:

File            PID             Type            Codec           Language                Seconds                 Bitrate                 Bytes           Packets
----            ---             ----            -----           --------                --------------          --------------          -------------   -----
00011.M2TS      4113 (0x1011)   0xEA            VC-1                                    2675,173                10 873                  3 635 884 178   19 825 189
00011.M2TS      4352 (0x1100)   0x81            AC3             eng (English)           2675,173                253                     84 744 984      496 656
00014.M2TS      4113 (0x1011)   0xEA            VC-1                                    0,876                   181                     19 777          124
<---- END FORUMS PASTE ---->

QUICK SUMMARY:

Disc Title: PERFORMERS_OF_THE_YEAR_2012_D2
Disc Size: 21 493 420 918 bytes
Protection: AACS
BD-Java: No
Playlist: 00010.MPLS
Size: 3 919 393 152 bytes
Length: 0:44:36.256
Total Bitrate: 11,72 Mbps
Video: VC-1 Video / 10869 kbps / 1080p / 23,976 fps / 16:9 / Advanced Profile 3
Audio: English / Dolby Digital Audio / 2.0 / 48 kHz / 256 kbps / DN -4dB

********************
PLAYLIST: 00004.MPLS
********************

<--- BEGIN FORUMS PASTE --->
Total   Video
Title                                                           Codec   Length  Movie Size      Disc Size       Bitrate Bitrate Main Audio Track                          Secondary Audio Track
-----                                                           ------  ------- --------------  --------------  ------- ------- ------------------                        ---------------------
00004.MPLS                                                      VC-1    0:39:10 3 476 529 216   21 493 420 918  11,83   10,99   DD AC3 2.0 256Kbps
DISC INFO:

Disc Title:     PERFORMERS_OF_THE_YEAR_2012_D2
Disc Size:      21 493 420 918 bytes
Protection:     AACS
BD-Java:        No
BDInfo:         0.5.8

PLAYLIST REPORT:

Name:                   00004.MPLS
Length:                 0:39:10.264 (h:m:s.ms)
Size:                   3 476 529 216 bytes
Total Bitrate:          11,83 Mbps

VIDEO:

Codec                   Bitrate             Description
-----                   -------             -----------
VC-1 Video              10994 kbps          1080p / 23,976 fps / 16:9 / Advanced Profile 3

AUDIO:

Codec                           Language        Bitrate         Description
-----                           --------        -------         -----------
Dolby Digital Audio             English         256 kbps        2.0 / 48 kHz / 256 kbps / DN -4dB

FILES:

Name            Time In         Length          Size            Total Bitrate
----            -------         ------          ----            -------------
00003.M2TS      0:00:00.000     0:39:09.263     3 476 498 496   11 839
00014.M2TS      0:39:09.263     0:00:01.000     30 720          246

CHAPTERS:

Number          Time In         Length          Avg Video Rate  Max 1-Sec Rate  Max 1-Sec Time  Max 5-Sec Rate  Max 5-Sec Time  Max 10Sec Rate  Max 10Sec Time  Avg Frame Size  Max Frame Size  Max Frame Time
------          -------         ------          --------------  --------------  --------------  --------------  --------------  --------------  --------------  --------------  --------------  --------------
1               0:00:00.000     0:04:31.604     11 401 kbps     20 686 kbps     00:04:12.335    16 362 kbps     00:04:12.210    15 208 kbps     00:03:50.396    59 612 bytes    185 721 bytes   00:03:54.776
2               0:04:31.604     0:01:37.472     10 871 kbps     12 685 kbps     00:05:41.382    11 889 kbps     00:05:41.215    11 459 kbps     00:04:31.688    56 675 bytes    139 209 bytes   00:04:39.362
3               0:06:09.077     0:01:42.435     10 938 kbps     12 300 kbps     00:06:27.845    11 771 kbps     00:06:59.544    11 714 kbps     00:06:27.428    57 027 bytes    144 188 bytes   00:06:30.473
4               0:07:51.512     0:00:48.757     10 571 kbps     11 935 kbps     00:08:04.609    11 609 kbps     00:08:04.192    11 419 kbps     00:08:01.606    55 112 bytes    167 658 bytes   00:08:21.501
5               0:08:40.269     0:05:43.092     10 581 kbps     12 281 kbps     00:12:52.730    11 376 kbps     00:11:10.836    11 277 kbps     00:10:45.353    55 167 bytes    166 359 bytes   00:14:02.842
6               0:14:23.362     0:02:42.537     11 251 kbps     13 533 kbps     00:16:47.881    13 191 kbps     00:16:43.627    12 785 kbps     00:16:41.834    58 659 bytes    183 376 bytes   00:16:07.967
7               0:17:05.899     0:06:34.936     11 120 kbps     13 382 kbps     00:23:26.321    12 674 kbps     00:23:24.069    12 278 kbps     00:23:21.650    57 973 bytes    178 561 bytes   00:22:22.466
8               0:23:40.836     0:03:18.573     10 549 kbps     14 029 kbps     00:26:17.158    13 353 kbps     00:26:17.158    13 022 kbps     00:26:14.489    54 996 bytes    200 677 bytes   00:25:02.501
9               0:26:59.409     0:05:26.993     11 443 kbps     14 258 kbps     00:28:03.056    13 218 kbps     00:28:03.056    13 101 kbps     00:28:03.098    59 668 bytes    169 547 bytes   00:28:03.306
10              0:32:26.402     0:04:28.685     11 147 kbps     13 944 kbps     00:34:42.705    13 297 kbps     00:34:42.371    13 141 kbps     00:34:42.121    58 116 bytes    169 012 bytes   00:34:47.085
11              0:36:55.087     0:02:14.175     10 171 kbps     12 942 kbps     00:37:59.819    12 517 kbps     00:37:58.818    12 052 kbps     00:37:56.399    53 108 bytes    159 852 bytes   00:38:14.292
12              0:39:09.263     0:00:01.001     84 kbps         0 kbps          00:00:00.000    0 kbps          00:00:00.000    0 kbps          00:00:00.000    479 bytes       9 231 bytes     00:39:10.014

STREAM DIAGNOSTICS:

File            PID             Type            Codec           Language                Seconds                 Bitrate                 Bytes           Packets
----            ---             ----            -----           --------                --------------          --------------          -------------   -----
00003.M2TS      4113 (0x1011)   0xEA            VC-1                                    2349,180                10 999                  3 229 861 867   17 587 571
00003.M2TS      4352 (0x1100)   0x81            AC3             eng (English)           2349,180                256                     75 174 912      440 478
00014.M2TS      4113 (0x1011)   0xEA            VC-1                                    0,876                   181                     19 777          124
<---- END FORUMS PASTE ---->

QUICK SUMMARY:

Disc Title: PERFORMERS_OF_THE_YEAR_2012_D2
Disc Size: 21 493 420 918 bytes
Protection: AACS
BD-Java: No
Playlist: 00004.MPLS
Size: 3 476 529 216 bytes
Length: 0:39:10.264
Total Bitrate: 11,83 Mbps
Video: VC-1 Video / 10994 kbps / 1080p / 23,976 fps / 16:9 / Advanced Profile 3
Audio: English / Dolby Digital Audio / 2.0 / 48 kHz / 256 kbps / DN -4dB

********************
PLAYLIST: 00011.MPLS
********************

<--- BEGIN FORUMS PASTE --->
Total   Video
Title                                                           Codec   Length  Movie Size      Disc Size       Bitrate Bitrate Main Audio Track                          Secondary Audio Track
-----                                                           ------  ------- --------------  --------------  ------- ------- ------------------                        ---------------------
00011.MPLS                                                      VC-1    0:33:28 2 921 334 528   21 493 420 918  11,63   10,79   DD AC3 2.0 256Kbps
DISC INFO:

Disc Title:     PERFORMERS_OF_THE_YEAR_2012_D2
Disc Size:      21 493 420 918 bytes
Protection:     AACS
BD-Java:        No
BDInfo:         0.5.8

PLAYLIST REPORT:

Name:                   00011.MPLS
Length:                 0:33:28.673 (h:m:s.ms)
Size:                   2 921 334 528 bytes
Total Bitrate:          11,63 Mbps

VIDEO:

Codec                   Bitrate             Description
-----                   -------             -----------
VC-1 Video              10789 kbps          1080p / 23,976 fps / 16:9 / Advanced Profile 3

AUDIO:

Codec                           Language        Bitrate         Description
-----                           --------        -------         -----------
Dolby Digital Audio             English         256 kbps        2.0 / 48 kHz / 256 kbps / DN -4dB

FILES:

Name            Time In         Length          Size            Total Bitrate
----            -------         ------          ----            -------------
00012.M2TS      0:00:00.000     0:33:27.672     2 921 303 808   11 643
00014.M2TS      0:33:27.672     0:00:01.000     30 720          246

CHAPTERS:

Number          Time In         Length          Avg Video Rate  Max 1-Sec Rate  Max 1-Sec Time  Max 5-Sec Rate  Max 5-Sec Time  Max 10Sec Rate  Max 10Sec Time  Avg Frame Size  Max Frame Size  Max Frame Time
------          -------         ------          --------------  --------------  --------------  --------------  --------------  --------------  --------------  --------------  --------------  --------------
1               0:00:00.000     0:02:21.099     9 853 kbps      17 555 kbps     00:01:24.626    14 344 kbps     00:00:19.060    13 507 kbps     00:00:16.141    52 064 bytes    191 673 bytes   00:00:30.029
2               0:02:21.099     0:04:19.801     14 564 kbps     19 936 kbps     00:05:50.516    19 000 kbps     00:05:46.095    18 281 kbps     00:05:41.507    76 579 bytes    235 349 bytes   00:03:36.674
3               0:06:40.900     0:02:11.256     9 643 kbps      13 768 kbps     00:06:52.954    12 312 kbps     00:07:43.087    11 968 kbps     00:07:26.654    50 824 bytes    241 626 bytes   00:07:49.135
4               0:08:52.156     0:01:56.699     11 663 kbps     17 115 kbps     00:10:05.313    15 921 kbps     00:10:03.477    15 594 kbps     00:10:04.145    61 532 bytes    189 156 bytes   00:09:49.255
5               0:10:48.856     0:01:59.494     9 637 kbps      13 093 kbps     00:12:09.437    12 401 kbps     00:12:15.609    12 185 kbps     00:12:09.520    51 028 bytes    169 692 bytes   00:12:12.815
6               0:12:48.350     0:01:20.580     8 253 kbps      11 312 kbps     00:13:58.963    10 392 kbps     00:13:57.127    9 589 kbps      00:13:57.044    44 672 bytes    145 748 bytes   00:14:01.173
7               0:14:08.931     0:02:53.673     10 444 kbps     13 459 kbps     00:16:01.168    13 127 kbps     00:15:59.083    12 805 kbps     00:15:54.161    55 559 bytes    193 413 bytes   00:14:23.195
8               0:17:02.604     0:01:53.947     11 569 kbps     13 899 kbps     00:18:31.110    13 008 kbps     00:18:27.106    12 528 kbps     00:17:07.234    62 369 bytes    169 444 bytes   00:18:01.121
9               0:18:56.552     0:03:20.074     9 724 kbps      13 328 kbps     00:22:06.575    12 457 kbps     00:21:57.065    12 339 kbps     00:21:51.935    51 478 bytes    171 901 bytes   00:21:08.350
10              0:22:16.626     0:01:28.421     11 657 kbps     14 802 kbps     00:23:02.047    14 035 kbps     00:22:22.883    13 551 kbps     00:23:00.337    61 678 bytes    176 637 bytes   00:22:26.345
11              0:23:45.048     0:08:44.315     10 276 kbps     14 066 kbps     00:29:01.740    13 181 kbps     00:28:58.903    12 568 kbps     00:28:54.899    54 698 bytes    163 309 bytes   00:30:31.621
12              0:32:29.364     0:00:58.308     9 474 kbps      12 373 kbps     00:33:21.624    11 334 kbps     00:32:33.951    10 987 kbps     00:32:31.074    52 233 bytes    218 290 bytes   00:32:43.795
13              0:33:27.672     0:00:01.000     84 kbps         0 kbps          00:00:00.000    0 kbps          00:00:00.000    0 kbps          00:00:00.000    479 bytes       9 231 bytes     00:33:28.423

STREAM DIAGNOSTICS:

File            PID             Type            Codec           Language                Seconds                 Bitrate                 Bytes           Packets
----            ---             ----            -----           --------                --------------          --------------          -------------   -----
00012.M2TS      4113 (0x1011)   0xEA            VC-1                                    2007,130                10 795                  2 708 260 555   14 776 000
00012.M2TS      4352 (0x1100)   0x81            AC3             eng (English)           2007,130                251                     63 036 499      369 480
00014.M2TS      4113 (0x1011)   0xEA            VC-1                                    0,876                   181                     19 777          124
<---- END FORUMS PASTE ---->

QUICK SUMMARY:

Disc Title: PERFORMERS_OF_THE_YEAR_2012_D2
Disc Size: 21 493 420 918 bytes
Protection: AACS
BD-Java: No
Playlist: 00011.MPLS
Size: 2 921 334 528 bytes
Length: 0:33:28.673
Total Bitrate: 11,63 Mbps
Video: VC-1 Video / 10789 kbps / 1080p / 23,976 fps / 16:9 / Advanced Profile 3
Audio: English / Dolby Digital Audio / 2.0 / 48 kHz / 256 kbps / DN -4dB

********************
PLAYLIST: 00009.MPLS
********************

<--- BEGIN FORUMS PASTE --->
Total   Video
Title                                                           Codec   Length  Movie Size      Disc Size       Bitrate Bitrate Main Audio Track                          Secondary Audio Track
-----                                                           ------  ------- --------------  --------------  ------- ------- ------------------                        ---------------------
00009.MPLS                                                      VC-1    0:28:18 2 514 100 224   21 493 420 918  11,84   11,00   DD AC3 2.0 256Kbps
DISC INFO:

Disc Title:     PERFORMERS_OF_THE_YEAR_2012_D2
Disc Size:      21 493 420 918 bytes
Protection:     AACS
BD-Java:        No
BDInfo:         0.5.8

PLAYLIST REPORT:

Name:                   00009.MPLS
Length:                 0:28:18.154 (h:m:s.ms)
Size:                   2 514 100 224 bytes
Total Bitrate:          11,84 Mbps

VIDEO:

Codec                   Bitrate             Description
-----                   -------             -----------
VC-1 Video              11003 kbps          1080p / 23,976 fps / 16:9 / Advanced Profile 3

AUDIO:

Codec                           Language        Bitrate         Description
-----                           --------        -------         -----------
Dolby Digital Audio             English         256 kbps        2.0 / 48 kHz / 256 kbps / DN -4dB

FILES:

Name            Time In         Length          Size            Total Bitrate
----            -------         ------          ----            -------------
00010.M2TS      0:00:00.000     0:28:17.153     2 514 069 504   11 851
00014.M2TS      0:28:17.153     0:00:01.000     30 720          246

CHAPTERS:

Number          Time In         Length          Avg Video Rate  Max 1-Sec Rate  Max 1-Sec Time  Max 5-Sec Rate  Max 5-Sec Time  Max 10Sec Rate  Max 10Sec Time  Avg Frame Size  Max Frame Size  Max Frame Time
------          -------         ------          --------------  --------------  --------------  --------------  --------------  --------------  --------------  --------------  --------------  --------------
1               0:00:00.000     0:02:56.801     9 334 kbps      20 277 kbps     00:00:36.536    18 422 kbps     00:00:32.532    15 376 kbps     00:00:27.986    48 907 bytes    261 376 bytes   00:00:33.575
2               0:02:56.801     0:00:59.267     11 348 kbps     14 591 kbps     00:02:56.843    12 621 kbps     00:03:02.432    12 461 kbps     00:02:56.968    59 161 bytes    184 681 bytes   00:03:08.980
3               0:03:56.069     0:02:23.309     10 904 kbps     13 321 kbps     00:06:14.248    12 224 kbps     00:06:11.287    11 560 kbps     00:06:08.659    56 847 bytes    180 781 bytes   00:05:34.000
4               0:06:19.379     0:03:41.971     11 708 kbps     14 803 kbps     00:08:54.242    13 893 kbps     00:08:54.450    13 706 kbps     00:08:52.823    61 038 bytes    179 297 bytes   00:07:57.143
5               0:10:01.350     0:02:12.715     10 848 kbps     14 970 kbps     00:11:49.917    13 317 kbps     00:11:46.580    12 826 kbps     00:11:43.244    56 573 bytes    170 460 bytes   00:12:04.723
6               0:12:14.066     0:02:58.553     10 638 kbps     14 361 kbps     00:13:31.519    12 808 kbps     00:14:38.878    12 612 kbps     00:14:38.210    55 501 bytes    172 595 bytes   00:13:31.810
7               0:15:12.620     0:04:31.312     10 637 kbps     13 735 kbps     00:18:29.566    13 370 kbps     00:18:27.773    13 218 kbps     00:18:27.648    55 457 bytes    148 354 bytes   00:18:32.778
8               0:19:43.932     0:04:56.462     11 798 kbps     15 295 kbps     00:24:28.592    13 288 kbps     00:24:25.589    12 969 kbps     00:24:21.001    61 526 bytes    166 859 bytes   00:22:50.369
9               0:24:40.395     0:02:55.967     11 357 kbps     14 738 kbps     00:26:37.804    13 354 kbps     00:24:41.605    12 785 kbps     00:24:40.437    59 222 bytes    166 871 bytes   00:24:40.812
10              0:27:36.363     0:00:40.790     11 772 kbps     14 479 kbps     00:28:06.810    13 228 kbps     00:27:59.844    12 857 kbps     00:27:57.801    61 816 bytes    185 371 bytes   00:28:07.018
11              0:28:17.153     0:00:01.000     84 kbps         0 kbps          00:00:00.000    0 kbps          00:00:00.000    0 kbps          00:00:00.000    479 bytes       9 231 bytes     00:28:17.904

STREAM DIAGNOSTICS:

File            PID             Type            Codec           Language                Seconds                 Bitrate                 Bytes           Packets
----            ---             ----            -----           --------                --------------          --------------          -------------   -----
00010.M2TS      4113 (0x1011)   0xEA            VC-1                                    1696,987                11 011                  2 335 680 510   12 719 055
00010.M2TS      4352 (0x1100)   0x81            AC3             eng (English)           1696,987                256                     54 300 672      318 168
00014.M2TS      4113 (0x1011)   0xEA            VC-1                                    0,876                   181                     19 777          124
<---- END FORUMS PASTE ---->

QUICK SUMMARY:

Disc Title: PERFORMERS_OF_THE_YEAR_2012_D2
Disc Size: 21 493 420 918 bytes
Protection: AACS
BD-Java: No
Playlist: 00009.MPLS
Size: 2 514 100 224 bytes
Length: 0:28:18.154
Total Bitrate: 11,84 Mbps
Video: VC-1 Video / 11003 kbps / 1080p / 23,976 fps / 16:9 / Advanced Profile 3
Audio: English / Dolby Digital Audio / 2.0 / 48 kHz / 256 kbps / DN -4dB

********************
PLAYLIST: 00002.MPLS
********************

<--- BEGIN FORUMS PASTE --->
Total   Video
Title                                                           Codec   Length  Movie Size      Disc Size       Bitrate Bitrate Main Audio Track                          Secondary Audio Track
-----                                                           ------  ------- --------------  --------------  ------- ------- ------------------                        ---------------------
00002.MPLS                                                      VC-1    0:06:19 560 984 064     21 493 420 918  11,82   10,98   DD AC3 2.0 256Kbps
DISC INFO:

Disc Title:     PERFORMERS_OF_THE_YEAR_2012_D2
Disc Size:      21 493 420 918 bytes
Protection:     AACS
BD-Java:        No
BDInfo:         0.5.8

PLAYLIST REPORT:

Name:                   00002.MPLS
Length:                 0:06:19.587 (h:m:s.ms)
Size:                   560 984 064 bytes
Total Bitrate:          11,82 Mbps

VIDEO:

Codec                   Bitrate             Description
-----                   -------             -----------
VC-1 Video              10984 kbps          1080p / 23,976 fps / 16:9 / Advanced Profile 3

AUDIO:

Codec                           Language        Bitrate         Description
-----                           --------        -------         -----------
Dolby Digital Audio             English         256 kbps        2.0 / 48 kHz / 256 kbps / DN -4dB

FILES:

Name            Time In         Length          Size            Total Bitrate
----            -------         ------          ----            -------------
00001.M2TS      0:00:00.000     0:06:18.586     560 953 344     11 854
00014.M2TS      0:06:18.586     0:00:01.000     30 720          246

CHAPTERS:

Number          Time In         Length          Avg Video Rate  Max 1-Sec Rate  Max 1-Sec Time  Max 5-Sec Rate  Max 5-Sec Time  Max 10Sec Rate  Max 10Sec Time  Avg Frame Size  Max Frame Size  Max Frame Time
------          -------         ------          --------------  --------------  --------------  --------------  --------------  --------------  --------------  --------------  --------------  --------------
1               0:00:00.000     0:03:10.064     12 621 kbps     16 115 kbps     00:01:23.291    14 283 kbps     00:01:21.456    13 969 kbps     00:01:17.452    65 785 bytes    222 974 bytes   00:00:26.025
2               0:03:10.064     0:00:21.688     11 473 kbps     15 088 kbps     00:03:11.316    12 609 kbps     00:03:10.148    11 609 kbps     00:03:10.148    59 815 bytes    174 666 bytes   00:03:26.873
3               0:03:31.753     0:00:40.874     10 093 kbps     14 777 kbps     00:03:31.836    12 650 kbps     00:03:31.753    11 393 kbps     00:03:31.753    52 621 bytes    165 612 bytes   00:03:42.555
4               0:04:12.627     0:00:18.268     11 586 kbps     13 193 kbps     00:04:18.132    12 740 kbps     00:04:17.757    12 225 kbps     00:04:12.794    60 403 bytes    144 410 bytes   00:04:19.259
5               0:04:30.895     0:01:47.690     8 335 kbps      10 987 kbps     00:04:39.320    9 881 kbps      00:04:36.484    9 384 kbps      00:04:35.316    43 933 bytes    153 347 bytes   00:04:43.283
6               0:06:18.586     0:00:01.000     84 kbps         0 kbps          00:00:00.000    0 kbps          00:00:00.000    0 kbps          00:00:00.000    479 bytes       9 231 bytes     00:06:19.337

STREAM DIAGNOSTICS:

File            PID             Type            Codec           Language                Seconds                 Bitrate                 Bytes           Packets
----            ---             ----            -----           --------                --------------          --------------          -------------   -----
00001.M2TS      4113 (0x1011)   0xEA            VC-1                                    378,461                 11 017                  521 172 446     2 837 926
00001.M2TS      4352 (0x1100)   0x81            AC3             eng (English)           378,461                 256                     12 113 920      70 980
00014.M2TS      4113 (0x1011)   0xEA            VC-1                                    0,876                   181                     19 777          124
<---- END FORUMS PASTE ---->

QUICK SUMMARY:

Disc Title: PERFORMERS_OF_THE_YEAR_2012_D2
Disc Size: 21 493 420 918 bytes
Protection: AACS
BD-Java: No
Playlist: 00002.MPLS
Size: 560 984 064 bytes
Length: 0:06:19.587
Total Bitrate: 11,82 Mbps
Video: VC-1 Video / 10984 kbps / 1080p / 23,976 fps / 16:9 / Advanced Profile 3
Audio: English / Dolby Digital Audio / 2.0 / 48 kHz / 256 kbps / DN -4dB

********************
PLAYLIST: 00012.MPLS
********************

<--- BEGIN FORUMS PASTE --->
Total   Video
Title                                                           Codec   Length  Movie Size      Disc Size       Bitrate Bitrate Main Audio Track                          Secondary Audio Track
-----                                                           ------  ------- --------------  --------------  ------- ------- ------------------                        ---------------------
00012.MPLS                                                      VC-1    0:03:01 245 701 440     21 493 420 918  10,83   10,06   DD AC3 2.0 192Kbps
DISC INFO:

Disc Title:     PERFORMERS_OF_THE_YEAR_2012_D2
Disc Size:      21 493 420 918 bytes
Protection:     AACS
BD-Java:        No
BDInfo:         0.5.8

PLAYLIST REPORT:

Name:                   00012.MPLS
Length:                 0:03:01.556 (h:m:s.ms)
Size:                   245 701 440 bytes
Total Bitrate:          10,83 Mbps

VIDEO:

Codec                   Bitrate             Description
-----                   -------             -----------
VC-1 Video              10063 kbps          1080p / 23,976 fps / 16:9 / Advanced Profile 3

AUDIO:

Codec                           Language        Bitrate         Description
-----                           --------        -------         -----------
Dolby Digital Audio             English         192 kbps        2.0 / 48 kHz / 192 kbps / DN -4dB

FILES:

Name            Time In         Length          Size            Total Bitrate
----            -------         ------          ----            -------------
00013.M2TS      0:00:00.000     0:03:00.555     245 670 720     10 885
00014.M2TS      0:03:00.555     0:00:01.000     30 720          246

CHAPTERS:

Number          Time In         Length          Avg Video Rate  Max 1-Sec Rate  Max 1-Sec Time  Max 5-Sec Rate  Max 5-Sec Time  Max 10Sec Rate  Max 10Sec Time  Avg Frame Size  Max Frame Size  Max Frame Time
------          -------         ------          --------------  --------------  --------------  --------------  --------------  --------------  --------------  --------------  --------------  --------------
1               0:00:00.000     0:03:00.555     10 118 kbps     22 619 kbps     00:01:56.449    15 414 kbps     00:02:19.931    14 742 kbps     00:02:19.764    53 769 bytes    382 432 bytes   00:00:46.129
2               0:03:00.555     0:00:01.000     84 kbps         0 kbps          00:00:00.000    0 kbps          00:00:00.000    0 kbps          00:00:00.000    479 bytes       9 231 bytes     00:03:01.306

STREAM DIAGNOSTICS:

File            PID             Type            Codec           Language                Seconds                 Bitrate                 Bytes           Packets
----            ---             ----            -----           --------                --------------          --------------          -------------   -----
00013.M2TS      4113 (0x1011)   0xEA            VC-1                                    180,430                 10 125                  228 348 783     1 245 544
00013.M2TS      4352 (0x1100)   0x81            AC3             eng (English)           180,430                 189                     4 252 799       27 691
00014.M2TS      4113 (0x1011)   0xEA            VC-1                                    0,876                   181                     19 777          124
<---- END FORUMS PASTE ---->

QUICK SUMMARY:

Disc Title: PERFORMERS_OF_THE_YEAR_2012_D2
Disc Size: 21 493 420 918 bytes
Protection: AACS
BD-Java: No
Playlist: 00012.MPLS
Size: 245 701 440 bytes
Length: 0:03:01.556
Total Bitrate: 10,83 Mbps
Video: VC-1 Video / 10063 kbps / 1080p / 23,976 fps / 16:9 / Advanced Profile 3
Audio: English / Dolby Digital Audio / 2.0 / 48 kHz / 192 kbps / DN -4dB

********************
PLAYLIST: 00000.MPLS
********************

<--- BEGIN FORUMS PASTE --->
Total   Video
Title                                                           Codec   Length  Movie Size      Disc Size       Bitrate Bitrate Main Audio Track                          Secondary Audio Track
-----                                                           ------  ------- --------------  --------------  ------- ------- ------------------                        ---------------------
00000.MPLS                                                      VC-1    0:00:25 7 291 776       21 493 420 918  2,33    1,90    DD AC3 2.0 256Kbps
DISC INFO:

Disc Title:     PERFORMERS_OF_THE_YEAR_2012_D2
Disc Size:      21 493 420 918 bytes
Protection:     AACS
BD-Java:        No
BDInfo:         0.5.8

PLAYLIST REPORT:

Name:                   00000.MPLS
Length:                 0:00:25.024 (h:m:s.ms)
Size:                   7 291 776 bytes
Total Bitrate:          2,33 Mbps

VIDEO:

Codec                   Bitrate             Description
-----                   -------             -----------
VC-1 Video              1898 kbps           1080p / 23,976 fps / 16:9 / Advanced Profile 3

AUDIO:

Codec                           Language        Bitrate         Description
-----                           --------        -------         -----------
Dolby Digital Audio             English         256 kbps        2.0 / 48 kHz / 256 kbps / DN -4dB

FILES:

Name            Time In         Length          Size            Total Bitrate
----            -------         ------          ----            -------------
00000.M2TS      0:00:00.000     0:00:24.024     7 261 056       2 414
00014.M2TS      0:00:24.024     0:00:01.000     30 720          246

CHAPTERS:

Number          Time In         Length          Avg Video Rate  Max 1-Sec Rate  Max 1-Sec Time  Max 5-Sec Rate  Max 5-Sec Time  Max 10Sec Rate  Max 10Sec Time  Avg Frame Size  Max Frame Size  Max Frame Time
------          -------         ------          --------------  --------------  --------------  --------------  --------------  --------------  --------------  --------------  --------------  --------------
1               0:00:00.000     0:00:24.024     1 974 kbps      5 905 kbps      00:00:00.041    2 535 kbps      00:00:03.962    2 363 kbps      00:00:00.000    11 997 bytes    153 480 bytes   00:00:02.001
2               0:00:24.024     0:00:01.000     224 kbps        224 kbps        00:00:24.023    0 kbps          00:00:00.000    0 kbps          00:00:00.000    2 155 bytes     9 232 bytes     00:00:25.024

STREAM DIAGNOSTICS:

File            PID             Type            Codec           Language                Seconds                 Bitrate                 Bytes           Packets
----            ---             ----            -----           --------                --------------          --------------          -------------   -----
00000.M2TS      4113 (0x1011)   0xEA            VC-1                                    4306,385                11 012                  5 927 982 650   32 279 557
00000.M2TS      4352 (0x1100)   0x81            AC3             eng (English)           4306,385                256                     137 807 872     807 468
00014.M2TS      4113 (0x1011)   0xEA            VC-1                                    0,876                   181                     19 777          124
<---- END FORUMS PASTE ---->

QUICK SUMMARY:

Disc Title: PERFORMERS_OF_THE_YEAR_2012_D2
Disc Size: 21 493 420 918 bytes
Protection: AACS
BD-Java: No
Playlist: 00000.MPLS
Size: 7 291 776 bytes
Length: 0:00:25.024
Total Bitrate: 2,33 Mbps
Video: VC-1 Video / 1898 kbps / 1080p / 23,976 fps / 16:9 / Advanced Profile 3
Audio: English / Dolby Digital Audio / 2.0 / 48 kHz / 256 kbps / DN -4dB

********************
PLAYLIST: 00003.MPLS
********************

<--- BEGIN FORUMS PASTE --->
Total   Video
Title                                                           Codec   Length  Movie Size      Disc Size       Bitrate Bitrate Main Audio Track                          Secondary Audio Track
-----                                                           ------  ------- --------------  --------------  ------- ------- ------------------                        ---------------------
00003.MPLS                                                      VC-1    0:14:38 1 032 732 672   21 493 420 918  9,40    8,70    DD AC3 2.0 192Kbps
DISC INFO:

Disc Title:     PERFORMERS_OF_THE_YEAR_2012_D2
Disc Size:      21 493 420 918 bytes
Protection:     AACS
BD-Java:        No
BDInfo:         0.5.8

PLAYLIST REPORT:

Name:                   00003.MPLS
Length:                 0:14:38.844 (h:m:s.ms)
Size:                   1 032 732 672 bytes
Total Bitrate:          9,40 Mbps

VIDEO:

Codec                   Bitrate             Description
-----                   -------             -----------
VC-1 Video              8704 kbps           1080i / 29,970 fps / 16:9 / Advanced Profile 3

AUDIO:

Codec                           Language        Bitrate         Description
-----                           --------        -------         -----------
Dolby Digital Audio             English         192 kbps        2.0 / 48 kHz / 192 kbps / DN -4dB

FILES:

Name            Time In         Length          Size            Total Bitrate
----            -------         ------          ----            -------------
00002.M2TS      0:00:00.000     0:14:37.843     1 032 695 808   9 411
00015.M2TS      0:14:37.843     0:00:01.000     36 864          295

CHAPTERS:

Number          Time In         Length          Avg Video Rate  Max 1-Sec Rate  Max 1-Sec Time  Max 5-Sec Rate  Max 5-Sec Time  Max 10Sec Rate  Max 10Sec Time  Avg Frame Size  Max Frame Size  Max Frame Time
------          -------         ------          --------------  --------------  --------------  --------------  --------------  --------------  --------------  --------------  --------------  --------------
1               0:00:00.000     0:14:37.843     8 714 kbps      34 630 kbps     00:05:42.308    11 331 kbps     00:01:50.076    11 114 kbps     00:01:48.141    36 351 bytes    732 636 bytes   00:02:19.139
2               0:14:37.843     0:00:01.000     87 kbps         0 kbps          00:00:00.000    0 kbps          00:00:00.000    0 kbps          00:00:00.000    389 bytes       9 232 bytes     00:14:38.444

STREAM DIAGNOSTICS:

File            PID             Type            Codec           Language                Seconds                 Bitrate                 Bytes           Packets
----            ---             ----            -----           --------                --------------          --------------          -------------   -----
00002.M2TS      4113 (0x1011)   0xEA            VC-1                                    877,777                 8 715                   956 196 972     5 212 045
00002.M2TS      4352 (0x1100)   0x81            AC3             eng (English)           877,777                 192                     21 066 240      137 150
00015.M2TS      4113 (0x1011)   0xEA            VC-1                                    0,901                   179                     20 111          130
<---- END FORUMS PASTE ---->

QUICK SUMMARY:

Disc Title: PERFORMERS_OF_THE_YEAR_2012_D2
Disc Size: 21 493 420 918 bytes
Protection: AACS
BD-Java: No
Playlist: 00003.MPLS
Size: 1 032 732 672 bytes
Length: 0:14:38.844
Total Bitrate: 9,40 Mbps
Video: VC-1 Video / 8704 kbps / 1080i / 29,970 fps / 16:9 / Advanced Profile 3
Audio: English / Dolby Digital Audio / 2.0 / 48 kHz / 192 kbps / DN -4dB

********************
PLAYLIST: 00013.MPLS
********************

<--- BEGIN FORUMS PASTE --->
Total   Video
Title                                                           Codec   Length  Movie Size      Disc Size       Bitrate Bitrate Main Audio Track                          Secondary Audio Track
-----                                                           ------  ------- --------------  --------------  ------- ------- ------------------                        ---------------------
00013.MPLS                                                      VC-1    0:03:28 278 448 960     21 493 420 918  10,67   9,90    DD AC3 2.0 192Kbps
DISC INFO:

Disc Title:     PERFORMERS_OF_THE_YEAR_2012_D2
Disc Size:      21 493 420 918 bytes
Protection:     AACS
BD-Java:        No
BDInfo:         0.5.8

PLAYLIST REPORT:

Name:                   00013.MPLS
Length:                 0:03:28.841 (h:m:s.ms)
Size:                   278 448 960 bytes
Total Bitrate:          10,67 Mbps

VIDEO:

Codec                   Bitrate             Description
-----                   -------             -----------
VC-1 Video              9902 kbps           1080i / 29,970 fps / 16:9 / Advanced Profile 3

AUDIO:

Codec                           Language        Bitrate         Description
-----                           --------        -------         -----------
Dolby Digital Audio             English         192 kbps        2.0 / 48 kHz / 192 kbps / DN -4dB

FILES:

Name            Time In         Length          Size            Total Bitrate
----            -------         ------          ----            -------------
00016.M2TS      0:00:00.000     0:03:27.840     278 412 096     10 716
00015.M2TS      0:03:27.840     0:00:01.000     36 864          295

CHAPTERS:

Number          Time In         Length          Avg Video Rate  Max 1-Sec Rate  Max 1-Sec Time  Max 5-Sec Rate  Max 5-Sec Time  Max 10Sec Rate  Max 10Sec Time  Avg Frame Size  Max Frame Size  Max Frame Time
------          -------         ------          --------------  --------------  --------------  --------------  --------------  --------------  --------------  --------------  --------------  --------------
1               0:00:00.000     0:00:35.535     9 623 kbps      14 138 kbps     00:00:02.369    11 702 kbps     00:00:02.502    11 199 kbps     00:00:02.202    41 261 bytes    147 849 bytes   00:00:05.004
2               0:00:35.535     0:00:31.398     9 847 kbps      15 075 kbps     00:00:35.869    12 013 kbps     00:00:35.869    10 903 kbps     00:00:35.869    42 895 bytes    120 118 bytes   00:00:51.384
3               0:01:06.933     0:00:29.095     10 322 kbps     14 890 kbps     00:01:07.167    11 696 kbps     00:01:07.333    11 453 kbps     00:01:21.714    43 806 bytes    142 172 bytes   00:01:21.748
4               0:01:36.029     0:00:26.092     9 987 kbps      16 803 kbps     00:01:39.799    11 962 kbps     00:01:39.799    11 616 kbps     00:01:39.799    43 722 bytes    150 775 bytes   00:01:49.109
5               0:02:02.121     0:00:30.897     10 243 kbps     18 563 kbps     00:02:13.099    12 785 kbps     00:02:12.599    11 686 kbps     00:02:08.495    45 107 bytes    171 950 bytes   00:02:09.229
6               0:02:33.019     0:00:34.434     9 686 kbps      17 289 kbps     00:02:46.599    12 101 kbps     00:02:46.633    11 328 kbps     00:02:46.799    41 609 bytes    168 640 bytes   00:02:46.833
7               0:03:07.453     0:00:20.387     10 089 kbps     18 674 kbps     00:03:20.133    12 912 kbps     00:03:19.432    11 827 kbps     00:03:14.427    43 430 bytes    138 751 bytes   00:03:23.202
8               0:03:27.840     0:00:01.000     87 kbps         0 kbps          00:00:00.000    0 kbps          00:00:00.000    0 kbps          00:00:00.000    389 bytes       9 232 bytes     00:03:28.441

STREAM DIAGNOSTICS:

File            PID             Type            Codec           Language                Seconds                 Bitrate                 Bytes           Packets
----            ---             ----            -----           --------                --------------          --------------          -------------   -----
00016.M2TS      4113 (0x1011)   0xEA            VC-1                                    207,774                 9 952                   258 462 566     1 411 034
00016.M2TS      4352 (0x1100)   0x81            AC3             eng (English)           207,774                 189                     4 899 072       31 899
00015.M2TS      4113 (0x1011)   0xEA            VC-1                                    0,901                   179                     20 111          130
<---- END FORUMS PASTE ---->

QUICK SUMMARY:

Disc Title: PERFORMERS_OF_THE_YEAR_2012_D2
Disc Size: 21 493 420 918 bytes
Protection: AACS
BD-Java: No
Playlist: 00013.MPLS
Size: 278 448 960 bytes
Length: 0:03:28.841
Total Bitrate: 10,67 Mbps
Video: VC-1 Video / 9902 kbps / 1080i / 29,970 fps / 16:9 / Advanced Profile 3
Audio: English / Dolby Digital Audio / 2.0 / 48 kHz / 192 kbps / DN -4dB
PERFORMERS_OF_THE_YEAR_2012_D1
General #0
ID : 0 (0x0)
Complete name : PERFORMERS_OF_THE_YEAR_2012_D1\BDMV\STREAM\00000.m2ts
Format : BDAV
Format/Info : Blu-ray Video
File size : 18.3 GiB
Duration : 3h 15mn
Overall bit rate : 13.4 Mbps
Maximum Overall bit rate : 48.0 Mbps
Video #4113
ID : 4113 (0x1011)
Menu ID : 1 (0x1)
Format : VC-1
Format profile : [email protected]
Codec ID : 234
Duration : 3h 15mn
Bit rate : 12.6 Mbps
Width : 1 920 pixels
Height : 1 080 pixels
Display aspect ratio : 16:9
Frame rate : 23.976 fps
Chroma subsampling : 4:2:0
Bit depth : 8 bits
Scan type : Progressive
Compression mode : Lossy
Bits/(Pixel*Frame) : 0.254
Stream size : 17.2 GiB (94%)
Audio #4352
ID : 4352 (0x1100)
Menu ID : 1 (0x1)
Format : AC-3
Format/Info : Audio Coding 3
Mode extension : CM (complete main)
Codec ID : 129
Duration : 3h 15mn
Bit rate mode : Constant
Bit rate : 256 Kbps
Channel(s) : 2 channels
Channel positions : Front: L R
Sampling rate : 48.0 KHz
Bit depth : 16 bits
Compression mode : Lossy
Stream size : 358 MiB (2%)

PERFORMERS_OF_THE_YEAR_2012_D2
General #0
ID : 0 (0x0)
Complete name : PERFORMERS_OF_THE_YEAR_2012_D2\BDMV\STREAM\00000.m2ts
Format : BDAV
Format/Info : Blu-ray Video
File size : 5.94 GiB
Duration : 1h 11mn
Overall bit rate : 11.9 Mbps
Maximum Overall bit rate : 48.0 Mbps
Video #4113
ID : 4113 (0x1011)
Menu ID : 1 (0x1)
Format : VC-1
Format profile : [email protected]
Codec ID : 234
Duration : 1h 11mn
Bit rate : 11.1 Mbps
Width : 1 920 pixels
Height : 1 080 pixels
Display aspect ratio : 16:9
Frame rate : 23.976 fps
Chroma subsampling : 4:2:0
Bit depth : 8 bits
Scan type : Progressive
Compression mode : Lossy
Bits/(Pixel*Frame) : 0.224
Stream size : 5.57 GiB (94%)
Audio #4352
ID : 4352 (0x1100)
Menu ID : 1 (0x1)
Format : AC-3
Format/Info : Audio Coding 3
Mode extension : CM (complete main)
Codec ID : 129
Duration : 1h 11mn
Bit rate mode : Constant
Bit rate : 256 Kbps
Channel(s) : 2 channels
Channel positions : Front: L R
Sampling rate : 48.0 KHz
Bit depth : 16 bits
Compression mode : Lossy
Stream size : 131 MiB (2%)
 
   
Торрент:
Зарегистрирован [20 окт 2015, 04:21]
Скачать торрент Магнет ссылка
Скачать торрент
[ Размер 201.18 КБ / Просмотров 2 ]
Статус:
Проверен
 
.torrent скачан: 0 раз
Хэш: 6a8aed9766d231b9065463964830bdc65f47b6dc
Размер: 38.38 ГБ (41 208 176 663 байт)
 

Вернуться в Гонзо-фильмы / Gonzo

Кто сейчас на конференции

Сейчас эту тему просматривают: нет зарегистрированных пользователей и гости: 1


Ресурс не предоставляет электронные версии произведений, а занимается лишь коллекционированием и каталогизацией ссылок, присылаемых и публикуемых на форуме нашими читателями. Если вы являетесь правообладателем какого-либо представленного материала и не желаете чтобы ссылка на него находилась в нашем каталоге, свяжитесь с нами и мы незамедлительно удалим её. Файлы для обмена на трекере предоставлены пользователями сайта, и администрация не несёт ответственности за их содержание. Просьба не заливать файлы, защищенные авторскими правами, а также файлы нелегального содержания!
cron