Slut Puppies 3 / Юные потаскушки 3 (Jules Jordan, Jules Jordan Video) [2009 г., All Sex, Gonzo, Anal, 1080i, Blu-Ray]

 Статистика раздачи 
Размер: 22.29 ГБ   |  Зарегистрирован: 20 окт 2015, 04:18   |   .torrent скачан: 1 раз
Сидеров: 34  [ 0 байт/сек ]     Личеров: 0  [ 0 байт/сек ]  
  
Случайная аватара
Раздал: 2 ГБ
Скачал: 0 байт
Ратио: Seed.
Сообщения: 12530
Зарегистрирован: 15 окт 2015, 12:16

Slut Puppies 3 / Юные потаскушки 3 (Jules Jordan, Jules Jordan Video) [2009 г., All Sex, Gonzo, Anal, 1080i, Blu-Ray]

Сообщение Tony Ribas » 20 окт 2015, 04:18

Slut Puppies 3 • Юные потаскушки 3

Год производства: 2009 г.
Страна: United States
Жанр: All Sex, Gonzo, Anal
Продолжительность: 03:18:08

Режиссер: Jules Jordan
Студия: Jules Jordan Video

Язык: Английский
В ролях: Allyssa Hall, Andi Anderson, Ashley Jensen, Dakoda Brookes, Kagney Linn Karter, Lexi Belle. Ben English, Criss Strokes, James Deen, Jerry, Jules Jordan, Mr. Marcus, Voodoo

Описание: Andi feels the dark power…up her ass!
Poor Dakoda needs to be stuffed with cock! We oblige and give her the DP of her life!
“Teen of the Year” award winner Allyssa loves to cum!
Kagney poolside…baby oil…cock…’nuff said!
Roller skater Lexi stumbles into the porno warehouse…where (of course) there’s cock!
Ashley Jensen is so hot…she could be the next teen idol! Consider this her audition!

Меню: Есть
Доп. материалы и бонусы:
* Interactive Menus
* Chapter Selection
* Photo Gallery
* Trailers

Тип HD видео: 1080i
Качество видео: Blu-Ray
Формат видео: Blu-Ray Video
Контейнер: BDMV
Видео кодек: H.264/AVC
Аудио кодек: AC3
Видео: MPEG-4 AVC Video / ~14200 Mbps / 1440x1080i / 29,970 fps / 16:9
Аудио: Dolby Digital Audio 2.0 / 48000 Hz / 192 kbps
Disc Title: Slut Puppies 3 1080i Blu-ray DD2.0 -TrollHD XXX
Disc Size: 23 931 121 712 bytes
Protection: AACS
BD-Java: Yes
BDInfo: 0.5.8

********************
PLAYLIST: 00002.MPLS
********************

<--- BEGIN FORUMS PASTE --->
Total   Video
Title                                                           Codec   Length  Movie Size      Disc Size       Bitrate Bitrate Main Audio Track                          Secondary Audio Track
-----                                                           ------  ------- --------------  --------------  ------- ------- ------------------                        ---------------------
00002.MPLS                                                      AVC     3:18:08 22 569 547 776  23 931 121 712  15,19   14,23   DD AC3 2.0 192Kbps
DISC INFO:

Disc Title:     Slut Puppies 3 1080i Blu-ray DD2.0 -TrollHD XXX
Disc Size:      23 931 121 712 bytes
Protection:     AACS
BD-Java:        Yes
BDInfo:         0.5.8

PLAYLIST REPORT:

Name:                   00002.MPLS
Length:                 3:18:08.943 (h:m:s.ms)
Size:                   22 569 547 776 bytes
Total Bitrate:          15,19 Mbps

VIDEO:

Codec                   Bitrate             Description
-----                   -------             -----------
MPEG-4 AVC Video        14233 kbps          1080i / 29,970 fps / 16:9 / High Profile 4.1

AUDIO:

Codec                           Language        Bitrate         Description
-----                           --------        -------         -----------
Dolby Digital Audio             Undetermined    192 kbps        2.0 / 48 kHz / 192 kbps / DN -4dB

FILES:

Name            Time In         Length          Size            Total Bitrate
----            -------         ------          ----            -------------
00002.M2TS      0:00:00.000     3:18:08.943     22 569 547 776  15 187

CHAPTERS:

Number          Time In         Length          Avg Video Rate  Max 1-Sec Rate  Max 1-Sec Time  Max 5-Sec Rate  Max 5-Sec Time  Max 10Sec Rate  Max 10Sec Time  Avg Frame Size  Max Frame Size  Max Frame Time
------          -------         ------          --------------  --------------  --------------  --------------  --------------  --------------  --------------  --------------  --------------  --------------
1               0:00:00.000     0:08:11.724     14 154 kbps     37 205 kbps     00:00:02.635    20 704 kbps     00:00:02.435    19 018 kbps     00:00:02.469    59 030 bytes    298 180 bytes   00:00:02.902
2               0:08:11.724     0:06:38.264     14 338 kbps     28 628 kbps     00:08:13.693    22 766 kbps     00:08:13.693    20 002 kbps     00:08:13.059    59 800 bytes    197 577 bytes   00:08:13.993
3               0:14:49.989     0:04:34.040     14 251 kbps     19 001 kbps     00:19:04.176    15 764 kbps     00:16:31.523    14 968 kbps     00:16:43.969    59 439 bytes    185 574 bytes   00:15:18.350
4               0:19:24.029     0:02:40.560     14 222 kbps     20 150 kbps     00:22:03.555    16 130 kbps     00:20:47.546    15 337 kbps     00:20:46.678    59 331 bytes    193 320 bytes   00:22:03.588
5               0:22:04.589     0:04:56.062     14 225 kbps     19 221 kbps     00:22:54.139    15 849 kbps     00:25:18.617    15 273 kbps     00:25:13.512    59 329 bytes    167 236 bytes   00:23:12.657
6               0:27:00.652     0:03:00.213     14 247 kbps     19 787 kbps     00:28:53.932    17 030 kbps     00:28:52.864    15 455 kbps     00:28:50.562    59 424 bytes    190 194 bytes   00:28:24.903
7               0:30:00.865     0:02:03.189     14 222 kbps     15 989 kbps     00:30:44.108    14 933 kbps     00:31:20.979    14 558 kbps     00:31:19.978    59 317 bytes    138 485 bytes   00:31:47.472
8               0:32:04.055     0:01:13.440     14 043 kbps     17 973 kbps     00:32:26.311    15 124 kbps     00:32:25.843    14 726 kbps     00:32:26.044    58 572 bytes    151 504 bytes   00:32:28.513
9               0:33:17.495     0:03:53.866     14 330 kbps     37 298 kbps     00:33:29.874    25 409 kbps     00:33:26.204    21 741 kbps     00:33:23.401    59 768 bytes    210 271 bytes   00:33:30.174
10              0:37:11.362     0:06:41.801     14 220 kbps     19 141 kbps     00:37:34.619    16 049 kbps     00:38:04.348    15 157 kbps     00:40:33.831    59 314 bytes    181 013 bytes   00:38:06.817
11              0:43:53.163     0:04:15.622     14 242 kbps     17 886 kbps     00:45:51.448    15 599 kbps     00:45:31.628    14 926 kbps     00:44:57.094    59 402 bytes    168 786 bytes   00:44:22.526
12              0:48:08.785     0:04:50.690     14 222 kbps     18 682 kbps     00:52:47.230    15 537 kbps     00:51:28.952    14 940 kbps     00:52:47.264    59 316 bytes    155 736 bytes   00:51:38.462
13              0:52:59.476     0:07:34.487     14 246 kbps     19 070 kbps     00:56:53.143    16 248 kbps     00:58:11.354    15 432 kbps     00:58:48.157    59 422 bytes    190 675 bytes   00:55:09.706
14              1:00:33.963     0:01:53.480     13 976 kbps     17 450 kbps     01:01:11.167    15 308 kbps     01:01:50.206    14 733 kbps     01:01:11.034    58 290 bytes    173 921 bytes   01:01:53.509
15              1:02:27.443     0:08:08.988     14 285 kbps     27 813 kbps     01:02:37.353    26 147 kbps     01:02:35.518    20 982 kbps     01:02:34.016    59 586 bytes    216 608 bytes   01:02:39.555
16              1:10:36.432     0:05:12.645     14 240 kbps     17 574 kbps     01:15:31.593    15 309 kbps     01:15:29.124    14 974 kbps     01:15:30.659    59 394 bytes    170 846 bytes   01:12:50.165
17              1:15:49.077     0:07:02.722     14 235 kbps     17 159 kbps     01:15:55.584    15 671 kbps     01:22:17.032    14 935 kbps     01:22:12.627    59 373 bytes    159 212 bytes   01:19:09.945
18              1:22:51.800     0:06:32.024     14 236 kbps     17 270 kbps     01:25:37.999    15 210 kbps     01:25:13.174    14 748 kbps     01:24:29.798    59 375 bytes    139 740 bytes   01:27:48.630
19              1:29:23.825     0:01:24.684     13 991 kbps     16 187 kbps     01:30:45.606    14 851 kbps     01:30:41.602    14 738 kbps     01:30:27.088    58 353 bytes    141 097 bytes   01:30:34.796
20              1:30:48.509     0:05:38.871     14 282 kbps     43 865 kbps     01:30:49.510    24 797 kbps     01:30:49.510    18 070 kbps     01:30:49.510    59 568 bytes    696 409 bytes   01:30:49.644
21              1:36:27.381     0:04:12.685     14 246 kbps     16 494 kbps     01:39:02.369    15 232 kbps     01:39:01.969    14 653 kbps     01:39:27.995    59 417 bytes    136 927 bytes   01:37:22.937
22              1:40:40.067     0:03:05.685     14 245 kbps     17 200 kbps     01:43:44.218    14 901 kbps     01:42:36.984    14 618 kbps     01:42:34.882    59 413 bytes    149 526 bytes   01:42:27.174
23              1:43:45.752     0:06:11.170     14 232 kbps     16 171 kbps     01:48:49.256    14 995 kbps     01:44:38.305    14 606 kbps     01:48:31.338    59 365 bytes    147 925 bytes   01:45:27.854
24              1:49:56.923     0:06:19.979     14 230 kbps     17 207 kbps     01:53:00.740    15 055 kbps     01:56:01.688    14 636 kbps     01:55:56.783    59 350 bytes    154 539 bytes   01:53:52.859
25              1:56:16.903     0:09:50.590     14 238 kbps     20 272 kbps     02:02:53.366    16 090 kbps     02:02:53.065    15 214 kbps     02:02:49.462    59 385 bytes    170 206 bytes   02:02:53.833
26              2:06:07.493     0:02:53.706     14 117 kbps     16 965 kbps     02:08:38.477    15 026 kbps     02:08:38.677    14 837 kbps     02:08:35.474    58 878 bytes    167 679 bytes   02:08:56.695
27              2:09:01.200     0:08:40.453     14 277 kbps     37 281 kbps     02:09:03.035    20 828 kbps     02:09:02.534    17 680 kbps     02:09:02.534    59 547 bytes    232 940 bytes   02:09:03.202
28              2:17:41.653     0:10:44.543     14 228 kbps     17 563 kbps     02:22:16.294    15 400 kbps     02:25:55.880    14 821 kbps     02:19:38.503    59 341 bytes    147 557 bytes   02:20:19.544
29              2:28:26.197     0:07:21.974     14 237 kbps     17 624 kbps     02:30:09.133    15 317 kbps     02:30:08.632    14 863 kbps     02:31:15.566    59 379 bytes    133 916 bytes   02:30:10.134
30              2:35:48.172     0:06:34.560     14 237 kbps     17 636 kbps     02:37:13.657    15 469 kbps     02:37:12.656    15 140 kbps     02:41:28.478    59 381 bytes    142 590 bytes   02:38:44.515
31              2:42:22.733     0:05:42.809     14 118 kbps     17 052 kbps     02:44:19.950    15 225 kbps     02:44:19.616    14 693 kbps     02:44:19.850    58 882 bytes    129 971 bytes   02:47:52.328
32              2:48:05.542     0:03:42.755     14 405 kbps     31 254 kbps     02:48:24.661    22 464 kbps     02:48:22.859    18 363 kbps     02:48:19.556    60 081 bytes    194 827 bytes   02:48:24.861
33              2:51:48.298     0:05:57.256     14 253 kbps     17 200 kbps     02:52:27.637    15 392 kbps     02:52:51.427    14 882 kbps     02:57:35.077    59 445 bytes    152 036 bytes   02:55:11.267
34              2:57:45.554     0:06:54.147     14 213 kbps     21 271 kbps     03:00:23.646    16 766 kbps     03:01:01.183    15 668 kbps     03:01:01.183    59 280 bytes    138 626 bytes   03:01:03.185
35              3:04:39.701     0:03:15.695     14 243 kbps     16 868 kbps     03:05:32.087    15 477 kbps     03:06:21.503    15 079 kbps     03:06:19.501    59 407 bytes    127 948 bytes   03:05:33.055
36              3:07:55.397     0:04:28.701     14 209 kbps     18 040 kbps     03:09:41.136    16 522 kbps     03:11:00.816    15 493 kbps     03:11:00.816    59 262 bytes    143 541 bytes   03:10:06.828
37              3:12:24.099     0:04:56.195     14 108 kbps     21 480 kbps     03:15:03.825    16 666 kbps     03:15:03.758    15 357 kbps     03:12:24.299    58 841 bytes    162 182 bytes   03:15:04.159
38              3:17:20.295     0:00:48.648     14 719 kbps     35 884 kbps     03:17:20.962    22 803 kbps     03:17:20.929    19 716 kbps     03:17:20.595    61 431 bytes    280 657 bytes   03:17:25.733

STREAM DIAGNOSTICS:

File            PID             Type            Codec           Language                Seconds                 Bitrate                 Bytes           Packets
----            ---             ----            -----           --------                --------------          --------------          -------------   -----
00002.M2TS      4113 (0x1011)   0x1B            AVC                                     11888,877               14 233                  21 151 774 508  115 163 782
00002.M2TS      4352 (0x1100)   0x81            AC3             und (Undetermined)      11888,877               192                     285 334 272     1 857 649
<---- END FORUMS PASTE ---->

QUICK SUMMARY:

Disc Title: Slut Puppies 3 1080i Blu-ray DD2.0 -TrollHD XXX
Disc Size: 23 931 121 712 bytes
Protection: AACS
BD-Java: Yes
Playlist: 00002.MPLS
Size: 22 569 547 776 bytes
Length: 3:18:08.943
Total Bitrate: 15,19 Mbps
Video: MPEG-4 AVC Video / 14233 kbps / 1080i / 29,970 fps / 16:9 / High Profile 4.1
Audio: Undetermined / Dolby Digital Audio / 2.0 / 48 kHz / 192 kbps / DN -4dB

********************
PLAYLIST: 01002.MPLS
********************

<--- BEGIN FORUMS PASTE --->
Total   Video
Title                                                           Codec   Length  Movie Size      Disc Size       Bitrate Bitrate Main Audio Track                          Secondary Audio Track
-----                                                           ------  ------- --------------  --------------  ------- ------- ------------------                        ---------------------
01002.MPLS                                                      AVC     3:18:08 22 569 547 776  23 931 121 712  15,19   14,23   DD AC3 2.0 192Kbps
DISC INFO:

Disc Title:     Slut Puppies 3 1080i Blu-ray DD2.0 -TrollHD XXX
Disc Size:      23 931 121 712 bytes
Protection:     AACS
BD-Java:        Yes
BDInfo:         0.5.8

PLAYLIST REPORT:

Name:                   01002.MPLS
Length:                 3:18:08.943 (h:m:s.ms)
Size:                   22 569 547 776 bytes
Total Bitrate:          15,19 Mbps

VIDEO:

Codec                   Bitrate             Description
-----                   -------             -----------
MPEG-4 AVC Video        14233 kbps          1080i / 29,970 fps / 16:9 / High Profile 4.1

AUDIO:

Codec                           Language        Bitrate         Description
-----                           --------        -------         -----------
Dolby Digital Audio             Undetermined    192 kbps        2.0 / 48 kHz / 192 kbps / DN -4dB

FILES:

Name            Time In         Length          Size            Total Bitrate
----            -------         ------          ----            -------------
00002.M2TS      0:00:00.000     3:18:08.943     22 569 547 776  15 187

CHAPTERS:

Number          Time In         Length          Avg Video Rate  Max 1-Sec Rate  Max 1-Sec Time  Max 5-Sec Rate  Max 5-Sec Time  Max 10Sec Rate  Max 10Sec Time  Avg Frame Size  Max Frame Size  Max Frame Time
------          -------         ------          --------------  --------------  --------------  --------------  --------------  --------------  --------------  --------------  --------------  --------------
1               0:00:00.000     0:08:11.724     14 154 kbps     37 205 kbps     00:00:02.635    20 704 kbps     00:00:02.435    19 018 kbps     00:00:02.469    59 030 bytes    298 180 bytes   00:00:02.902
2               0:08:11.724     0:06:38.264     14 338 kbps     28 628 kbps     00:08:13.693    22 766 kbps     00:08:13.693    20 002 kbps     00:08:13.059    59 800 bytes    197 577 bytes   00:08:13.993
3               0:14:49.989     0:04:34.040     14 251 kbps     19 001 kbps     00:19:04.176    15 764 kbps     00:16:31.523    14 968 kbps     00:16:43.969    59 439 bytes    185 574 bytes   00:15:18.350
4               0:19:24.029     0:02:40.560     14 222 kbps     20 150 kbps     00:22:03.555    16 130 kbps     00:20:47.546    15 337 kbps     00:20:46.678    59 331 bytes    193 320 bytes   00:22:03.588
5               0:22:04.589     0:04:56.062     14 225 kbps     19 221 kbps     00:22:54.139    15 849 kbps     00:25:18.617    15 273 kbps     00:25:13.512    59 329 bytes    167 236 bytes   00:23:12.657
6               0:27:00.652     0:03:00.213     14 247 kbps     19 787 kbps     00:28:53.932    17 030 kbps     00:28:52.864    15 455 kbps     00:28:50.562    59 424 bytes    190 194 bytes   00:28:24.903
7               0:30:00.865     0:02:03.189     14 222 kbps     15 989 kbps     00:30:44.108    14 933 kbps     00:31:20.979    14 558 kbps     00:31:19.978    59 317 bytes    138 485 bytes   00:31:47.472
8               0:32:04.055     0:01:13.440     14 043 kbps     17 973 kbps     00:32:26.311    15 124 kbps     00:32:25.843    14 726 kbps     00:32:26.044    58 572 bytes    151 504 bytes   00:32:28.513
9               0:33:17.495     0:03:53.866     14 330 kbps     37 298 kbps     00:33:29.874    25 409 kbps     00:33:26.204    21 741 kbps     00:33:23.401    59 768 bytes    210 271 bytes   00:33:30.174
10              0:37:11.362     0:06:41.801     14 220 kbps     19 141 kbps     00:37:34.619    16 049 kbps     00:38:04.348    15 157 kbps     00:40:33.831    59 314 bytes    181 013 bytes   00:38:06.817
11              0:43:53.163     0:04:15.622     14 242 kbps     17 886 kbps     00:45:51.448    15 599 kbps     00:45:31.628    14 926 kbps     00:44:57.094    59 402 bytes    168 786 bytes   00:44:22.526
12              0:48:08.785     0:04:50.690     14 222 kbps     18 682 kbps     00:52:47.230    15 537 kbps     00:51:28.952    14 940 kbps     00:52:47.264    59 316 bytes    155 736 bytes   00:51:38.462
13              0:52:59.476     0:07:34.487     14 246 kbps     19 070 kbps     00:56:53.143    16 248 kbps     00:58:11.354    15 432 kbps     00:58:48.157    59 422 bytes    190 675 bytes   00:55:09.706
14              1:00:33.963     0:01:53.480     13 976 kbps     17 450 kbps     01:01:11.167    15 308 kbps     01:01:50.206    14 733 kbps     01:01:11.034    58 290 bytes    173 921 bytes   01:01:53.509
15              1:02:27.443     0:08:08.988     14 285 kbps     27 813 kbps     01:02:37.353    26 147 kbps     01:02:35.518    20 982 kbps     01:02:34.016    59 586 bytes    216 608 bytes   01:02:39.555
16              1:10:36.432     0:05:12.645     14 240 kbps     17 574 kbps     01:15:31.593    15 309 kbps     01:15:29.124    14 974 kbps     01:15:30.659    59 394 bytes    170 846 bytes   01:12:50.165
17              1:15:49.077     0:07:02.722     14 235 kbps     17 159 kbps     01:15:55.584    15 671 kbps     01:22:17.032    14 935 kbps     01:22:12.627    59 373 bytes    159 212 bytes   01:19:09.945
18              1:22:51.800     0:06:32.024     14 236 kbps     17 270 kbps     01:25:37.999    15 210 kbps     01:25:13.174    14 748 kbps     01:24:29.798    59 375 bytes    139 740 bytes   01:27:48.630
19              1:29:23.825     0:01:24.684     13 991 kbps     16 187 kbps     01:30:45.606    14 851 kbps     01:30:41.602    14 738 kbps     01:30:27.088    58 353 bytes    141 097 bytes   01:30:34.796
20              1:30:48.509     0:05:38.871     14 282 kbps     43 865 kbps     01:30:49.510    24 797 kbps     01:30:49.510    18 070 kbps     01:30:49.510    59 568 bytes    696 409 bytes   01:30:49.644
21              1:36:27.381     0:04:12.685     14 246 kbps     16 494 kbps     01:39:02.369    15 232 kbps     01:39:01.969    14 653 kbps     01:39:27.995    59 417 bytes    136 927 bytes   01:37:22.937
22              1:40:40.067     0:03:05.685     14 245 kbps     17 200 kbps     01:43:44.218    14 901 kbps     01:42:36.984    14 618 kbps     01:42:34.882    59 413 bytes    149 526 bytes   01:42:27.174
23              1:43:45.752     0:06:11.170     14 232 kbps     16 171 kbps     01:48:49.256    14 995 kbps     01:44:38.305    14 606 kbps     01:48:31.338    59 365 bytes    147 925 bytes   01:45:27.854
24              1:49:56.923     0:06:19.979     14 230 kbps     17 207 kbps     01:53:00.740    15 055 kbps     01:56:01.688    14 636 kbps     01:55:56.783    59 350 bytes    154 539 bytes   01:53:52.859
25              1:56:16.903     0:09:50.590     14 238 kbps     20 272 kbps     02:02:53.366    16 090 kbps     02:02:53.065    15 214 kbps     02:02:49.462    59 385 bytes    170 206 bytes   02:02:53.833
26              2:06:07.493     0:02:53.706     14 117 kbps     16 965 kbps     02:08:38.477    15 026 kbps     02:08:38.677    14 837 kbps     02:08:35.474    58 878 bytes    167 679 bytes   02:08:56.695
27              2:09:01.200     0:08:40.453     14 277 kbps     37 281 kbps     02:09:03.035    20 828 kbps     02:09:02.534    17 680 kbps     02:09:02.534    59 547 bytes    232 940 bytes   02:09:03.202
28              2:17:41.653     0:10:44.543     14 228 kbps     17 563 kbps     02:22:16.294    15 400 kbps     02:25:55.880    14 821 kbps     02:19:38.503    59 341 bytes    147 557 bytes   02:20:19.544
29              2:28:26.197     0:07:21.974     14 237 kbps     17 624 kbps     02:30:09.133    15 317 kbps     02:30:08.632    14 863 kbps     02:31:15.566    59 379 bytes    133 916 bytes   02:30:10.134
30              2:35:48.172     0:06:34.560     14 237 kbps     17 636 kbps     02:37:13.657    15 469 kbps     02:37:12.656    15 140 kbps     02:41:28.478    59 381 bytes    142 590 bytes   02:38:44.515
31              2:42:22.733     0:05:42.809     14 118 kbps     17 052 kbps     02:44:19.950    15 225 kbps     02:44:19.616    14 693 kbps     02:44:19.850    58 882 bytes    129 971 bytes   02:47:52.328
32              2:48:05.542     0:03:42.755     14 405 kbps     31 254 kbps     02:48:24.661    22 464 kbps     02:48:22.859    18 363 kbps     02:48:19.556    60 081 bytes    194 827 bytes   02:48:24.861
33              2:51:48.298     0:05:57.256     14 253 kbps     17 200 kbps     02:52:27.637    15 392 kbps     02:52:51.427    14 882 kbps     02:57:35.077    59 445 bytes    152 036 bytes   02:55:11.267
34              2:57:45.554     0:06:54.147     14 213 kbps     21 271 kbps     03:00:23.646    16 766 kbps     03:01:01.183    15 668 kbps     03:01:01.183    59 280 bytes    138 626 bytes   03:01:03.185
35              3:04:39.701     0:03:15.695     14 243 kbps     16 868 kbps     03:05:32.087    15 477 kbps     03:06:21.503    15 079 kbps     03:06:19.501    59 407 bytes    127 948 bytes   03:05:33.055
36              3:07:55.397     0:04:28.701     14 209 kbps     18 040 kbps     03:09:41.136    16 522 kbps     03:11:00.816    15 493 kbps     03:11:00.816    59 262 bytes    143 541 bytes   03:10:06.828
37              3:12:24.099     0:04:56.195     14 108 kbps     21 480 kbps     03:15:03.825    16 666 kbps     03:15:03.758    15 357 kbps     03:12:24.299    58 841 bytes    162 182 bytes   03:15:04.159
38              3:17:20.295     0:00:48.648     14 719 kbps     35 884 kbps     03:17:20.962    22 803 kbps     03:17:20.929    19 716 kbps     03:17:20.595    61 431 bytes    280 657 bytes   03:17:25.733

STREAM DIAGNOSTICS:

File            PID             Type            Codec           Language                Seconds                 Bitrate                 Bytes           Packets
----            ---             ----            -----           --------                --------------          --------------          -------------   -----
00002.M2TS      4113 (0x1011)   0x1B            AVC                                     11888,877               14 233                  21 151 774 508  115 163 782
00002.M2TS      4352 (0x1100)   0x81            AC3             und (Undetermined)      11888,877               192                     285 334 272     1 857 649
<---- END FORUMS PASTE ---->

QUICK SUMMARY:

Disc Title: Slut Puppies 3 1080i Blu-ray DD2.0 -TrollHD XXX
Disc Size: 23 931 121 712 bytes
Protection: AACS
BD-Java: Yes
Playlist: 01002.MPLS
Size: 22 569 547 776 bytes
Length: 3:18:08.943
Total Bitrate: 15,19 Mbps
Video: MPEG-4 AVC Video / 14233 kbps / 1080i / 29,970 fps / 16:9 / High Profile 4.1
Audio: Undetermined / Dolby Digital Audio / 2.0 / 48 kHz / 192 kbps / DN -4dB

********************
PLAYLIST: 00004.MPLS
********************

<--- BEGIN FORUMS PASTE --->
Total   Video
Title                                                           Codec   Length  Movie Size      Disc Size       Bitrate Bitrate Main Audio Track                          Secondary Audio Track
-----                                                           ------  ------- --------------  --------------  ------- ------- ------------------                        ---------------------
00004.MPLS                                                      AVC     0:07:10 265 672 704     23 931 121 712  4,94    4,64
DISC INFO:

Disc Title:     Slut Puppies 3 1080i Blu-ray DD2.0 -TrollHD XXX
Disc Size:      23 931 121 712 bytes
Protection:     AACS
BD-Java:        Yes
BDInfo:         0.5.8

PLAYLIST REPORT:

Name:                   00004.MPLS
Length:                 0:07:10.430 (h:m:s.ms)
Size:                   265 672 704 bytes
Total Bitrate:          4,94 Mbps

VIDEO:

Codec                   Bitrate             Description
-----                   -------             -----------
MPEG-4 AVC Video        4640 kbps           1080i / 29,970 fps / 16:9 / High Profile 4.1

FILES:

Name            Time In         Length          Size            Total Bitrate
----            -------         ------          ----            -------------
00004.M2TS      0:00:00.000     0:07:10.430     265 672 704     4 938

CHAPTERS:

Number          Time In         Length          Avg Video Rate  Max 1-Sec Rate  Max 1-Sec Time  Max 5-Sec Rate  Max 5-Sec Time  Max 10Sec Rate  Max 10Sec Time  Avg Frame Size  Max Frame Size  Max Frame Time
------          -------         ------          --------------  --------------  --------------  --------------  --------------  --------------  --------------  --------------  --------------  --------------
1               0:00:00.000     0:07:10.430     4 640 kbps      9 500 kbps      00:01:59.652    9 496 kbps      00:01:59.652    9 079 kbps      00:01:54.747    19 354 bytes    536 113 bytes   00:02:00.120

STREAM DIAGNOSTICS:

File            PID             Type            Codec           Language                Seconds                 Bitrate                 Bytes           Packets
----            ---             ----            -----           --------                --------------          --------------          -------------   -----
00004.M2TS      4113 (0x1011)   0x1B            AVC                                     430,330                 4 641                   249 671 111     1 364 608
<---- END FORUMS PASTE ---->

QUICK SUMMARY:

Disc Title: Slut Puppies 3 1080i Blu-ray DD2.0 -TrollHD XXX
Disc Size: 23 931 121 712 bytes
Protection: AACS
BD-Java: Yes
Playlist: 00004.MPLS
Size: 265 672 704 bytes
Length: 0:07:10.430
Total Bitrate: 4,94 Mbps
Video: MPEG-4 AVC Video / 4640 kbps / 1080i / 29,970 fps / 16:9 / High Profile 4.1

********************
PLAYLIST: 01004.MPLS
********************

<--- BEGIN FORUMS PASTE --->
Total   Video
Title                                                           Codec   Length  Movie Size      Disc Size       Bitrate Bitrate Main Audio Track                          Secondary Audio Track
-----                                                           ------  ------- --------------  --------------  ------- ------- ------------------                        ---------------------
01004.MPLS                                                      AVC     0:07:10 265 672 704     23 931 121 712  4,94    4,64
DISC INFO:

Disc Title:     Slut Puppies 3 1080i Blu-ray DD2.0 -TrollHD XXX
Disc Size:      23 931 121 712 bytes
Protection:     AACS
BD-Java:        Yes
BDInfo:         0.5.8

PLAYLIST REPORT:

Name:                   01004.MPLS
Length:                 0:07:10.430 (h:m:s.ms)
Size:                   265 672 704 bytes
Total Bitrate:          4,94 Mbps

VIDEO:

Codec                   Bitrate             Description
-----                   -------             -----------
MPEG-4 AVC Video        4640 kbps           1080i / 29,970 fps / 16:9 / High Profile 4.1

FILES:

Name            Time In         Length          Size            Total Bitrate
----            -------         ------          ----            -------------
00004.M2TS      0:00:00.000     0:07:10.430     265 672 704     4 938

CHAPTERS:

Number          Time In         Length          Avg Video Rate  Max 1-Sec Rate  Max 1-Sec Time  Max 5-Sec Rate  Max 5-Sec Time  Max 10Sec Rate  Max 10Sec Time  Avg Frame Size  Max Frame Size  Max Frame Time
------          -------         ------          --------------  --------------  --------------  --------------  --------------  --------------  --------------  --------------  --------------  --------------
1               0:00:00.000     0:07:10.430     4 640 kbps      9 500 kbps      00:01:59.652    9 496 kbps      00:01:59.652    9 079 kbps      00:01:54.747    19 354 bytes    536 113 bytes   00:02:00.120

STREAM DIAGNOSTICS:

File            PID             Type            Codec           Language                Seconds                 Bitrate                 Bytes           Packets
----            ---             ----            -----           --------                --------------          --------------          -------------   -----
00004.M2TS      4113 (0x1011)   0x1B            AVC                                     430,330                 4 641                   249 671 111     1 364 608
<---- END FORUMS PASTE ---->

QUICK SUMMARY:

Disc Title: Slut Puppies 3 1080i Blu-ray DD2.0 -TrollHD XXX
Disc Size: 23 931 121 712 bytes
Protection: AACS
BD-Java: Yes
Playlist: 01004.MPLS
Size: 265 672 704 bytes
Length: 0:07:10.430
Total Bitrate: 4,94 Mbps
Video: MPEG-4 AVC Video / 4640 kbps / 1080i / 29,970 fps / 16:9 / High Profile 4.1

********************
PLAYLIST: 00003.MPLS
********************

<--- BEGIN FORUMS PASTE --->
Total   Video
Title                                                           Codec   Length  Movie Size      Disc Size       Bitrate Bitrate Main Audio Track                          Secondary Audio Track
-----                                                           ------  ------- --------------  --------------  ------- ------- ------------------                        ---------------------
00003.MPLS                                                      AVC     0:07:05 885 952 512     23 931 121 712  16,65   15,64   DD AC3 2.0 192Kbps
DISC INFO:

Disc Title:     Slut Puppies 3 1080i Blu-ray DD2.0 -TrollHD XXX
Disc Size:      23 931 121 712 bytes
Protection:     AACS
BD-Java:        Yes
BDInfo:         0.5.8

PLAYLIST REPORT:

Name:                   00003.MPLS
Length:                 0:07:05.591 (h:m:s.ms)
Size:                   885 952 512 bytes
Total Bitrate:          16,65 Mbps

VIDEO:

Codec                   Bitrate             Description
-----                   -------             -----------
MPEG-4 AVC Video        15639 kbps          1080i / 29,970 fps / 16:9 / High Profile 4.1

AUDIO:

Codec                           Language        Bitrate         Description
-----                           --------        -------         -----------
Dolby Digital Audio             Undetermined    192 kbps        2.0 / 48 kHz / 192 kbps / DN -4dB

FILES:

Name            Time In         Length          Size            Total Bitrate
----            -------         ------          ----            -------------
00003.M2TS      0:00:00.000     0:07:05.591     885 952 512     16 654

CHAPTERS:

Number          Time In         Length          Avg Video Rate  Max 1-Sec Rate  Max 1-Sec Time  Max 5-Sec Rate  Max 5-Sec Time  Max 10Sec Rate  Max 10Sec Time  Avg Frame Size  Max Frame Size  Max Frame Time
------          -------         ------          --------------  --------------  --------------  --------------  --------------  --------------  --------------  --------------  --------------  --------------
1               0:00:00.000     0:01:10.503     15 749 kbps     19 518 kbps     00:00:21.921    16 588 kbps     00:00:21.354    16 205 kbps     00:00:21.554    65 654 bytes    154 010 bytes   00:01:10.470
2               0:01:10.503     0:00:53.753     15 650 kbps     18 134 kbps     00:01:30.790    16 747 kbps     00:01:28.088    16 117 kbps     00:01:41.568    65 272 bytes    155 218 bytes   00:01:10.970
3               0:02:04.257     0:01:19.345     15 705 kbps     17 334 kbps     00:03:14.260    16 505 kbps     00:03:06.819    16 338 kbps     00:03:06.419    65 503 bytes    146 218 bytes   00:02:23.276
4               0:03:23.603     0:01:07.600     15 648 kbps     17 422 kbps     00:03:30.510    16 228 kbps     00:03:28.374    16 041 kbps     00:03:27.373    65 267 bytes    137 425 bytes   00:03:30.577
5               0:04:31.204     0:01:26.653     15 719 kbps     17 487 kbps     00:05:36.269    16 291 kbps     00:04:58.631    16 002 kbps     00:05:35.735    65 560 bytes    131 851 bytes   00:05:51.751
6               0:05:57.857     0:01:07.734     15 324 kbps     16 680 kbps     00:06:57.917    16 052 kbps     00:06:02.328    15 934 kbps     00:06:01.361    63 947 bytes    140 519 bytes   00:06:33.359

STREAM DIAGNOSTICS:

File            PID             Type            Codec           Language                Seconds                 Bitrate                 Bytes           Packets
----            ---             ----            -----           --------                --------------          --------------          -------------   -----
00003.M2TS      4113 (0x1011)   0x1B            AVC                                     425,492                 15 642                  831 953 389     4 528 923
00003.M2TS      4352 (0x1100)   0x81            AC3             und (Undetermined)      425,492                 192                     10 214 400      66 500
<---- END FORUMS PASTE ---->

QUICK SUMMARY:

Disc Title: Slut Puppies 3 1080i Blu-ray DD2.0 -TrollHD XXX
Disc Size: 23 931 121 712 bytes
Protection: AACS
BD-Java: Yes
Playlist: 00003.MPLS
Size: 885 952 512 bytes
Length: 0:07:05.591
Total Bitrate: 16,65 Mbps
Video: MPEG-4 AVC Video / 15639 kbps / 1080i / 29,970 fps / 16:9 / High Profile 4.1
Audio: Undetermined / Dolby Digital Audio / 2.0 / 48 kHz / 192 kbps / DN -4dB

********************
PLAYLIST: 01003.MPLS
********************

<--- BEGIN FORUMS PASTE --->
Total   Video
Title                                                           Codec   Length  Movie Size      Disc Size       Bitrate Bitrate Main Audio Track                          Secondary Audio Track
-----                                                           ------  ------- --------------  --------------  ------- ------- ------------------                        ---------------------
01003.MPLS                                                      AVC     0:07:05 885 952 512     23 931 121 712  16,65   15,64   DD AC3 2.0 192Kbps
DISC INFO:

Disc Title:     Slut Puppies 3 1080i Blu-ray DD2.0 -TrollHD XXX
Disc Size:      23 931 121 712 bytes
Protection:     AACS
BD-Java:        Yes
BDInfo:         0.5.8

PLAYLIST REPORT:

Name:                   01003.MPLS
Length:                 0:07:05.591 (h:m:s.ms)
Size:                   885 952 512 bytes
Total Bitrate:          16,65 Mbps

VIDEO:

Codec                   Bitrate             Description
-----                   -------             -----------
MPEG-4 AVC Video        15639 kbps          1080i / 29,970 fps / 16:9 / High Profile 4.1

AUDIO:

Codec                           Language        Bitrate         Description
-----                           --------        -------         -----------
Dolby Digital Audio             Undetermined    192 kbps        2.0 / 48 kHz / 192 kbps / DN -4dB

FILES:

Name            Time In         Length          Size            Total Bitrate
----            -------         ------          ----            -------------
00003.M2TS      0:00:00.000     0:07:05.591     885 952 512     16 654

CHAPTERS:

Number          Time In         Length          Avg Video Rate  Max 1-Sec Rate  Max 1-Sec Time  Max 5-Sec Rate  Max 5-Sec Time  Max 10Sec Rate  Max 10Sec Time  Avg Frame Size  Max Frame Size  Max Frame Time
------          -------         ------          --------------  --------------  --------------  --------------  --------------  --------------  --------------  --------------  --------------  --------------
1               0:00:00.000     0:01:10.503     15 749 kbps     19 518 kbps     00:00:21.921    16 588 kbps     00:00:21.354    16 205 kbps     00:00:21.554    65 654 bytes    154 010 bytes   00:01:10.470
2               0:01:10.503     0:00:53.753     15 650 kbps     18 134 kbps     00:01:30.790    16 747 kbps     00:01:28.088    16 117 kbps     00:01:41.568    65 272 bytes    155 218 bytes   00:01:10.970
3               0:02:04.257     0:01:19.345     15 705 kbps     17 334 kbps     00:03:14.260    16 505 kbps     00:03:06.819    16 338 kbps     00:03:06.419    65 503 bytes    146 218 bytes   00:02:23.276
4               0:03:23.603     0:01:07.600     15 648 kbps     17 422 kbps     00:03:30.510    16 228 kbps     00:03:28.374    16 041 kbps     00:03:27.373    65 267 bytes    137 425 bytes   00:03:30.577
5               0:04:31.204     0:01:26.653     15 719 kbps     17 487 kbps     00:05:36.269    16 291 kbps     00:04:58.631    16 002 kbps     00:05:35.735    65 560 bytes    131 851 bytes   00:05:51.751
6               0:05:57.857     0:01:07.734     15 324 kbps     16 680 kbps     00:06:57.917    16 052 kbps     00:06:02.328    15 934 kbps     00:06:01.361    63 947 bytes    140 519 bytes   00:06:33.359

STREAM DIAGNOSTICS:

File            PID             Type            Codec           Language                Seconds                 Bitrate                 Bytes           Packets
----            ---             ----            -----           --------                --------------          --------------          -------------   -----
00003.M2TS      4113 (0x1011)   0x1B            AVC                                     425,492                 15 642                  831 953 389     4 528 923
00003.M2TS      4352 (0x1100)   0x81            AC3             und (Undetermined)      425,492                 192                     10 214 400      66 500
<---- END FORUMS PASTE ---->

QUICK SUMMARY:

Disc Title: Slut Puppies 3 1080i Blu-ray DD2.0 -TrollHD XXX
Disc Size: 23 931 121 712 bytes
Protection: AACS
BD-Java: Yes
Playlist: 01003.MPLS
Size: 885 952 512 bytes
Length: 0:07:05.591
Total Bitrate: 16,65 Mbps
Video: MPEG-4 AVC Video / 15639 kbps / 1080i / 29,970 fps / 16:9 / High Profile 4.1
Audio: Undetermined / Dolby Digital Audio / 2.0 / 48 kHz / 192 kbps / DN -4dB

********************
PLAYLIST: 00001.MPLS
********************

<--- BEGIN FORUMS PASTE --->
Total   Video
Title                                                           Codec   Length  Movie Size      Disc Size       Bitrate Bitrate Main Audio Track                          Secondary Audio Track
-----                                                           ------  ------- --------------  --------------  ------- ------- ------------------                        ---------------------
00001.MPLS                                                      AVC     0:00:40 80 173 056      23 931 121 712  16,00   15,02   DD AC3 2.0 192Kbps
DISC INFO:

Disc Title:     Slut Puppies 3 1080i Blu-ray DD2.0 -TrollHD XXX
Disc Size:      23 931 121 712 bytes
Protection:     AACS
BD-Java:        Yes
BDInfo:         0.5.8

PLAYLIST REPORT:

Name:                   00001.MPLS
Length:                 0:00:40.081 (h:m:s.ms)
Size:                   80 173 056 bytes
Total Bitrate:          16,00 Mbps

VIDEO:

Codec                   Bitrate             Description
-----                   -------             -----------
MPEG-4 AVC Video        15018 kbps          1080p / 23,976 fps / 16:9 / High Profile 4.1

AUDIO:

Codec                           Language        Bitrate         Description
-----                           --------        -------         -----------
Dolby Digital Audio             Undetermined    192 kbps        2.0 / 48 kHz / 192 kbps / DN -4dB

FILES:

Name            Time In         Length          Size            Total Bitrate
----            -------         ------          ----            -------------
00001.M2TS      0:00:00.000     0:00:40.081     80 173 056      16 002

CHAPTERS:

Number          Time In         Length          Avg Video Rate  Max 1-Sec Rate  Max 1-Sec Time  Max 5-Sec Rate  Max 5-Sec Time  Max 10Sec Rate  Max 10Sec Time  Avg Frame Size  Max Frame Size  Max Frame Time
------          -------         ------          --------------  --------------  --------------  --------------  --------------  --------------  --------------  --------------  --------------  --------------
1               0:00:00.000     0:00:40.081     15 018 kbps     28 465 kbps     00:00:02.961    18 290 kbps     00:00:01.001    16 532 kbps     00:00:00.667    78 297 bytes    514 274 bytes   00:00:03.003

STREAM DIAGNOSTICS:

File            PID             Type            Codec           Language                Seconds                 Bitrate                 Bytes           Packets
----            ---             ----            -----           --------                --------------          --------------          -------------   -----
00001.M2TS      4113 (0x1011)   0x1B            AVC                                     39,998                  15 049                  75 243 382      409 503
00001.M2TS      4352 (0x1100)   0x81            AC3             und (Undetermined)      39,998                  192                     961 536         6 260
<---- END FORUMS PASTE ---->

QUICK SUMMARY:

Disc Title: Slut Puppies 3 1080i Blu-ray DD2.0 -TrollHD XXX
Disc Size: 23 931 121 712 bytes
Protection: AACS
BD-Java: Yes
Playlist: 00001.MPLS
Size: 80 173 056 bytes
Length: 0:00:40.081
Total Bitrate: 16,00 Mbps
Video: MPEG-4 AVC Video / 15018 kbps / 1080p / 23,976 fps / 16:9 / High Profile 4.1
Audio: Undetermined / Dolby Digital Audio / 2.0 / 48 kHz / 192 kbps / DN -4dB

********************
PLAYLIST: 01001.MPLS
********************

<--- BEGIN FORUMS PASTE --->
Total   Video
Title                                                           Codec   Length  Movie Size      Disc Size       Bitrate Bitrate Main Audio Track                          Secondary Audio Track
-----                                                           ------  ------- --------------  --------------  ------- ------- ------------------                        ---------------------
01001.MPLS                                                      AVC     0:00:40 80 173 056      23 931 121 712  16,00   15,02   DD AC3 2.0 192Kbps
DISC INFO:

Disc Title:     Slut Puppies 3 1080i Blu-ray DD2.0 -TrollHD XXX
Disc Size:      23 931 121 712 bytes
Protection:     AACS
BD-Java:        Yes
BDInfo:         0.5.8

PLAYLIST REPORT:

Name:                   01001.MPLS
Length:                 0:00:40.081 (h:m:s.ms)
Size:                   80 173 056 bytes
Total Bitrate:          16,00 Mbps

VIDEO:

Codec                   Bitrate             Description
-----                   -------             -----------
MPEG-4 AVC Video        15018 kbps          1080p / 23,976 fps / 16:9 / High Profile 4.1

AUDIO:

Codec                           Language        Bitrate         Description
-----                           --------        -------         -----------
Dolby Digital Audio             Undetermined    192 kbps        2.0 / 48 kHz / 192 kbps / DN -4dB

FILES:

Name            Time In         Length          Size            Total Bitrate
----            -------         ------          ----            -------------
00001.M2TS      0:00:00.000     0:00:40.081     80 173 056      16 002

CHAPTERS:

Number          Time In         Length          Avg Video Rate  Max 1-Sec Rate  Max 1-Sec Time  Max 5-Sec Rate  Max 5-Sec Time  Max 10Sec Rate  Max 10Sec Time  Avg Frame Size  Max Frame Size  Max Frame Time
------          -------         ------          --------------  --------------  --------------  --------------  --------------  --------------  --------------  --------------  --------------  --------------
1               0:00:00.000     0:00:40.081     15 018 kbps     28 465 kbps     00:00:02.961    18 290 kbps     00:00:01.001    16 532 kbps     00:00:00.667    78 297 bytes    514 274 bytes   00:00:03.003

STREAM DIAGNOSTICS:

File            PID             Type            Codec           Language                Seconds                 Bitrate                 Bytes           Packets
----            ---             ----            -----           --------                --------------          --------------          -------------   -----
00001.M2TS      4113 (0x1011)   0x1B            AVC                                     39,998                  15 049                  75 243 382      409 503
00001.M2TS      4352 (0x1100)   0x81            AC3             und (Undetermined)      39,998                  192                     961 536         6 260
<---- END FORUMS PASTE ---->

QUICK SUMMARY:

Disc Title: Slut Puppies 3 1080i Blu-ray DD2.0 -TrollHD XXX
Disc Size: 23 931 121 712 bytes
Protection: AACS
BD-Java: Yes
Playlist: 01001.MPLS
Size: 80 173 056 bytes
Length: 0:00:40.081
Total Bitrate: 16,00 Mbps
Video: MPEG-4 AVC Video / 15018 kbps / 1080p / 23,976 fps / 16:9 / High Profile 4.1
Audio: Undetermined / Dolby Digital Audio / 2.0 / 48 kHz / 192 kbps / DN -4dB

********************
PLAYLIST: 00000.MPLS
********************

<--- BEGIN FORUMS PASTE --->
Total   Video
Title                                                           Codec   Length  Movie Size      Disc Size       Bitrate Bitrate Main Audio Track                          Secondary Audio Track
-----                                                           ------  ------- --------------  --------------  ------- ------- ------------------                        ---------------------
00000.MPLS                                                      AVC     0:00:39 61 925 376      23 931 121 712  12,47   11,63   DD AC3 2.0 192Kbps
DISC INFO:

Disc Title:     Slut Puppies 3 1080i Blu-ray DD2.0 -TrollHD XXX
Disc Size:      23 931 121 712 bytes
Protection:     AACS
BD-Java:        Yes
BDInfo:         0.5.8

PLAYLIST REPORT:

Name:                   00000.MPLS
Length:                 0:00:39.739 (h:m:s.ms)
Size:                   61 925 376 bytes
Total Bitrate:          12,47 Mbps

VIDEO:

Codec                   Bitrate             Description
-----                   -------             -----------
MPEG-4 AVC Video        11625 kbps          1080i / 29,970 fps / 16:9 / High Profile 4.1

AUDIO:

Codec                           Language        Bitrate         Description
-----                           --------        -------         -----------
Dolby Digital Audio             Undetermined    192 kbps        2.0 / 48 kHz / 192 kbps / DN -4dB

FILES:

Name            Time In         Length          Size            Total Bitrate
----            -------         ------          ----            -------------
00000.M2TS      0:00:00.000     0:00:39.739     61 925 376      12 466

CHAPTERS:

Number          Time In         Length          Avg Video Rate  Max 1-Sec Rate  Max 1-Sec Time  Max 5-Sec Rate  Max 5-Sec Time  Max 10Sec Rate  Max 10Sec Time  Avg Frame Size  Max Frame Size  Max Frame Time
------          -------         ------          --------------  --------------  --------------  --------------  --------------  --------------  --------------  --------------  --------------  --------------
1               0:00:00.000     0:00:39.739     11 625 kbps     49 986 kbps     00:00:24.824    33 222 kbps     00:00:24.024    30 178 kbps     00:00:23.323    48 487 bytes    300 849 bytes   00:00:10.043

STREAM DIAGNOSTICS:

File            PID             Type            Codec           Language                Seconds                 Bitrate                 Bytes           Packets
----            ---             ----            -----           --------                --------------          --------------          -------------   -----
00000.M2TS      4113 (0x1011)   0x1B            AVC                                     39,640                  11 655                  57 747 801      314 542
00000.M2TS      4352 (0x1100)   0x81            AC3             und (Undetermined)      39,640                  193                     953 856         6 210
<---- END FORUMS PASTE ---->

QUICK SUMMARY:

Disc Title: Slut Puppies 3 1080i Blu-ray DD2.0 -TrollHD XXX
Disc Size: 23 931 121 712 bytes
Protection: AACS
BD-Java: Yes
Playlist: 00000.MPLS
Size: 61 925 376 bytes
Length: 0:00:39.739
Total Bitrate: 12,47 Mbps
Video: MPEG-4 AVC Video / 11625 kbps / 1080i / 29,970 fps / 16:9 / High Profile 4.1
Audio: Undetermined / Dolby Digital Audio / 2.0 / 48 kHz / 192 kbps / DN -4dB

********************
PLAYLIST: 01000.MPLS
********************

<--- BEGIN FORUMS PASTE --->
Total   Video
Title                                                           Codec   Length  Movie Size      Disc Size       Bitrate Bitrate Main Audio Track                          Secondary Audio Track
-----                                                           ------  ------- --------------  --------------  ------- ------- ------------------                        ---------------------
01000.MPLS                                                      AVC     0:00:39 61 925 376      23 931 121 712  12,47   11,63   DD AC3 2.0 192Kbps
DISC INFO:

Disc Title:     Slut Puppies 3 1080i Blu-ray DD2.0 -TrollHD XXX
Disc Size:      23 931 121 712 bytes
Protection:     AACS
BD-Java:        Yes
BDInfo:         0.5.8

PLAYLIST REPORT:

Name:                   01000.MPLS
Length:                 0:00:39.739 (h:m:s.ms)
Size:                   61 925 376 bytes
Total Bitrate:          12,47 Mbps

VIDEO:

Codec                   Bitrate             Description
-----                   -------             -----------
MPEG-4 AVC Video        11625 kbps          1080i / 29,970 fps / 16:9 / High Profile 4.1

AUDIO:

Codec                           Language        Bitrate         Description
-----                           --------        -------         -----------
Dolby Digital Audio             Undetermined    192 kbps        2.0 / 48 kHz / 192 kbps / DN -4dB

FILES:

Name            Time In         Length          Size            Total Bitrate
----            -------         ------          ----            -------------
00000.M2TS      0:00:00.000     0:00:39.739     61 925 376      12 466

CHAPTERS:

Number          Time In         Length          Avg Video Rate  Max 1-Sec Rate  Max 1-Sec Time  Max 5-Sec Rate  Max 5-Sec Time  Max 10Sec Rate  Max 10Sec Time  Avg Frame Size  Max Frame Size  Max Frame Time
------          -------         ------          --------------  --------------  --------------  --------------  --------------  --------------  --------------  --------------  --------------  --------------
1               0:00:00.000     0:00:39.739     11 625 kbps     49 986 kbps     00:00:24.824    33 222 kbps     00:00:24.024    30 178 kbps     00:00:23.323    48 487 bytes    300 849 bytes   00:00:10.043

STREAM DIAGNOSTICS:

File            PID             Type            Codec           Language                Seconds                 Bitrate                 Bytes           Packets
----            ---             ----            -----           --------                --------------          --------------          -------------   -----
00000.M2TS      4113 (0x1011)   0x1B            AVC                                     39,640                  11 655                  57 747 801      314 542
00000.M2TS      4352 (0x1100)   0x81            AC3             und (Undetermined)      39,640                  193                     953 856         6 210
<---- END FORUMS PASTE ---->

QUICK SUMMARY:

Disc Title: Slut Puppies 3 1080i Blu-ray DD2.0 -TrollHD XXX
Disc Size: 23 931 121 712 bytes
Protection: AACS
BD-Java: Yes
Playlist: 01000.MPLS
Size: 61 925 376 bytes
Length: 0:00:39.739
Total Bitrate: 12,47 Mbps
Video: MPEG-4 AVC Video / 11625 kbps / 1080i / 29,970 fps / 16:9 / High Profile 4.1
Audio: Undetermined / Dolby Digital Audio / 2.0 / 48 kHz / 192 kbps / DN -4dB
General #0
ID : 0 (0x0)
Complete name : Slut Puppies 3 1080i Blu-ray DD2.0 -TrollHD XXX\BDMV\STREAM\00002.m2ts
Format : BDAV
Format/Info : Blu-ray Video
File size : 21.0 GiB
Duration : 3h 18mn
Overall bit rate mode : Variable
Overall bit rate : 15.2 Mbps
Maximum Overall bit rate : 48.0 Mbps
Video #4113
ID : 4113 (0x1011)
Menu ID : 1 (0x1)
Format : AVC
Format/Info : Advanced Video Codec
Format profile :
Format settings, CABAC : Yes
Format settings, ReFrames : 3 frames
Format settings, GOP : M=3, N=15
Codec ID : 27
Duration : 3h 18mn
Bit rate mode : Variable
Bit rate : 14.4 Mbps
Maximum bit rate : 35.0 Mbps
Width : 1 920 pixels
Height : 1 080 pixels
Display aspect ratio : 16:9
Frame rate : 29.970 fps
Standard : NTSC
Color space : YUV
Chroma subsampling : 4:2:0
Bit depth : 8 bits
Scan type : Interlaced
Scan order : Top Field First
Bits/(Pixel*Frame) : 0.231
Stream size : 19.9 GiB (95%)
Color primaries : BT.709-5, BT.1361, IEC 61966-2-4, SMPTE RP177
Transfer characteristics : BT.709-5, BT.1361
Matrix coefficients : BT.709-5, BT.1361, IEC 61966-2-4 709, SMPTE RP177
Audio #4352
ID : 4352 (0x1100)
Menu ID : 1 (0x1)
Format : AC-3
Format/Info : Audio Coding 3
Mode extension : CM (complete main)
Codec ID : 129
Duration : 3h 18mn
Bit rate mode : Constant
Bit rate : 192 Kbps
Channel(s) : 2 channels
Channel positions : Front: L R
Sampling rate : 48.0 KHz
Bit depth : 16 bits
Compression mode : Lossy
Stream size : 272 MiB (1%)
 
   
Торрент:
Зарегистрирован [20 окт 2015, 04:18]
Скачать торрент Магнет ссылка
Скачать торрент
[ Размер 115.72 КБ / Просмотров 3 ]
Статус:
Проверен
 
.torrent скачан: 1 раз
Хэш: 331a22b2d5df10cede9d04ad5a73a9aea2816670
Размер: 22.29 ГБ (23 931 121 712 байт)
 

Вернуться в Гонзо-фильмы / Gonzo

Кто сейчас на конференции

Сейчас эту тему просматривают: нет зарегистрированных пользователей и гости: 1


Ресурс не предоставляет электронные версии произведений, а занимается лишь коллекционированием и каталогизацией ссылок, присылаемых и публикуемых на форуме нашими читателями. Если вы являетесь правообладателем какого-либо представленного материала и не желаете чтобы ссылка на него находилась в нашем каталоге, свяжитесь с нами и мы незамедлительно удалим её. Файлы для обмена на трекере предоставлены пользователями сайта, и администрация не несёт ответственности за их содержание. Просьба не заливать файлы, защищенные авторскими правами, а также файлы нелегального содержания!
cron