Barely Legal POV #15 / Едва Совершеннолетние от Первого лица # 15 [720p, Web-DL] (Split scenes)

 Статистика раздачи 
Размер: 3.63 ГБ   |  Зарегистрирован: 20 окт 2015, 04:12   |   .torrent скачан: 0 раз
Сидеров: 3  [ 0 байт/сек ]     Личеров: 0  [ 0 байт/сек ]  
  
Случайная аватара
Раздал: 2 ГБ
Скачал: 0 байт
Ратио: Seed.
Сообщения: 12530
Зарегистрирован: 15 окт 2015, 12:16

Barely Legal POV #15 / Едва Совершеннолетние от Первого лица # 15 [720p, Web-DL] (Split scenes)

Сообщение Tony Ribas » 20 окт 2015, 04:12

Barely Legal POV #15
Едва Совершеннолетние от Первого лица # 15






Имена актрис: Tessa Lane, Gia Steel, Ella Milano, Elaina Raye, Bailey Blue

Год производства: 2013 г.
Страна: USA
Студия: Hustler
Язык: Английский
Жанр: Teen 18+, Big Tits, Latina, Blonde, Blowjob, Brunette, Creampie, Cumshot, Facial, Hairy Pussy, Hardcore, Natural, Oral, POV, Petite, Small Tits, Doggystyle
Продолжительность: 165 мин.

Описание: Five newbies open wide for our cameras! These hot babes will give you the POV of your lifetime!

Тип HD видео: 720p
Качество видео: Web-DL
Формат видео: MP4
Видео кодек: H.264/AVC
Аудио кодек: AAC
Видео: MPEG4 Video (H264) 1280x720 29.97fps 3112kbps
Аудио: AAC 44100Hz stereo 107kbps

General
Format : MPEG-4
Format profile : QuickTime
Codec ID : qt
File size : 693 MiB
Duration : 30mn 1s
Overall bit rate : 3 226 Kbps
Encoded date : UTC 2013-09-15 12:16:12
Tagged date : UTC 2013-09-15 14:30:15
Writing library : Apple QuickTime
Media/UUID : 64E2049C-64F8-4D24-A15D-B198D423A36E

Video
ID : 1
Format : AVC
Format/Info : Advanced Video Codec
Format profile :
Format settings, CABAC : No
Format settings, ReFrames : 2 frames
Codec ID : avc1
Codec ID/Info : Advanced Video Coding
Duration : 30mn 1s
Bit rate : 3 113 Kbps
Width : 1 248 pixels
Original width : 1 280 pixels
Height : 702 pixels
Original height : 720 pixels
Display aspect ratio : 16:9
Frame rate mode : Constant
Frame rate : 29.970 fps
Color space : YUV
Chroma subsampling : 4:2:0
Bit depth : 8 bits
Scan type : Progressive
Bits/(Pixel*Frame) : 0.119
Stream size : 668 MiB (96%)
Language : English
Encoded date : UTC 2013-09-15 14:28:52
Tagged date : UTC 2013-09-15 14:30:15
Color primaries : BT.709
Transfer characteristics : BT.709
Matrix coefficients : BT.709

Audio
ID : 2
Format : AAC
Format/Info : Advanced Audio Codec
Format profile : LC
Codec ID : 40
Duration : 30mn 1s
Source duration : 30mn 1s
Bit rate mode : Constant
Bit rate : 108 Kbps
Nominal bit rate : 128 Kbps
Channel(s) : 2 channels
Channel positions : Front: L R
Sampling rate : 44.1 KHz
Compression mode : Lossy
Stream size : 23.2 MiB (3%)
Source stream size : 23.2 MiB (3%)
Language : English
Encoded date : UTC 2013-09-15 14:28:52
Tagged date : UTC 2013-09-15 14:30:15

Other
ID : 3
Type : Time code
Format : QuickTime TC
Duration : 30mn 1s
Time code of first frame : 00:00:00;00
Time code settings : Striped
Language : English
Encoded date : UTC 2013-09-15 14:30:15
Tagged date : UTC 2013-09-15 14:30:15
General
Format : MPEG-4
Format profile : QuickTime
Codec ID : qt
File size : 858 MiB
Duration : 37mn 11s
Overall bit rate : 3 224 Kbps
Encoded date : UTC 2013-09-15 20:30:04
Tagged date : UTC 2013-09-15 23:17:14
Writing library : Apple QuickTime
Media/UUID : EF5473B8-4064-4E90-AB25-AD78DE9798EE

Video
ID : 1
Format : AVC
Format/Info : Advanced Video Codec
Format profile :
Format settings, CABAC : No
Format settings, ReFrames : 2 frames
Codec ID : avc1
Codec ID/Info : Advanced Video Coding
Duration : 37mn 11s
Bit rate : 3 113 Kbps
Width : 1 248 pixels
Original width : 1 280 pixels
Height : 702 pixels
Original height : 720 pixels
Display aspect ratio : 16:9
Frame rate mode : Constant
Frame rate : 29.970 fps
Color space : YUV
Chroma subsampling : 4:2:0
Bit depth : 8 bits
Scan type : Progressive
Bits/(Pixel*Frame) : 0.119
Stream size : 828 MiB (97%)
Language : English
Encoded date : UTC 2013-09-15 23:15:29
Tagged date : UTC 2013-09-15 23:17:14
Color primaries : BT.709
Transfer characteristics : BT.709
Matrix coefficients : BT.709

Audio
ID : 2
Format : AAC
Format/Info : Advanced Audio Codec
Format profile : LC
Codec ID : 40
Duration : 37mn 11s
Source duration : 37mn 11s
Bit rate mode : Constant
Bit rate : 106 Kbps
Nominal bit rate : 128 Kbps
Channel(s) : 2 channels
Channel positions : Front: L R
Sampling rate : 44.1 KHz
Compression mode : Lossy
Stream size : 28.2 MiB (3%)
Source stream size : 28.2 MiB (3%)
Language : English
Encoded date : UTC 2013-09-15 23:15:29
Tagged date : UTC 2013-09-15 23:17:14

Other
ID : 3
Type : Time code
Format : QuickTime TC
Duration : 37mn 11s
Time code of first frame : 00:00:00;00
Time code settings : Striped
Language : English
Encoded date : UTC 2013-09-15 23:17:14
Tagged date : UTC 2013-09-15 23:17:14
General
Format : MPEG-4
Format profile : QuickTime
Codec ID : qt
File size : 836 MiB
Duration : 38mn 7s
Overall bit rate : 3 065 Kbps
Encoded date : UTC 2013-09-16 06:06:39
Tagged date : UTC 2013-09-16 08:58:16
Writing library : Apple QuickTime
Media/UUID : 23BBECD7-EE1E-4958-B6A1-E7B52B9FFDB0

Video
ID : 1
Format : AVC
Format/Info : Advanced Video Codec
Format profile :
Format settings, CABAC : No
Format settings, ReFrames : 2 frames
Codec ID : avc1
Codec ID/Info : Advanced Video Coding
Duration : 38mn 7s
Bit rate : 2 953 Kbps
Width : 1 248 pixels
Original width : 1 280 pixels
Height : 702 pixels
Original height : 720 pixels
Display aspect ratio : 16:9
Frame rate mode : Constant
Frame rate : 29.970 fps
Color space : YUV
Chroma subsampling : 4:2:0
Bit depth : 8 bits
Scan type : Progressive
Bits/(Pixel*Frame) : 0.112
Stream size : 805 MiB (96%)
Language : English
Encoded date : UTC 2013-09-16 08:56:27
Tagged date : UTC 2013-09-16 08:58:16
Color primaries : BT.709
Transfer characteristics : BT.709
Matrix coefficients : BT.709

Audio
ID : 2
Format : AAC
Format/Info : Advanced Audio Codec
Format profile : LC
Codec ID : 40
Duration : 38mn 7s
Source duration : 38mn 7s
Bit rate mode : Constant
Bit rate : 107 Kbps
Nominal bit rate : 128 Kbps
Channel(s) : 2 channels
Channel positions : Front: L R
Sampling rate : 44.1 KHz
Compression mode : Lossy
Stream size : 29.2 MiB (3%)
Source stream size : 29.2 MiB (3%)
Language : English
Encoded date : UTC 2013-09-16 08:56:27
Tagged date : UTC 2013-09-16 08:58:16

Other
ID : 3
Type : Time code
Format : QuickTime TC
Duration : 38mn 7s
Time code of first frame : 00:00:00;00
Time code settings : Striped
Language : English
Encoded date : UTC 2013-09-16 08:58:16
Tagged date : UTC 2013-09-16 08:58:16
General
Format : MPEG-4
Format profile : QuickTime
Codec ID : qt
File size : 689 MiB
Duration : 31mn 4s
Overall bit rate : 3 102 Kbps
Encoded date : UTC 2013-09-16 14:19:38
Tagged date : UTC 2013-09-16 16:49:20
Writing library : Apple QuickTime
Media/UUID : B0DEBA61-1917-4526-9969-675C3EFBE140

Video
ID : 1
Format : AVC
Format/Info : Advanced Video Codec
Format profile :
Format settings, CABAC : No
Format settings, ReFrames : 2 frames
Codec ID : avc1
Codec ID/Info : Advanced Video Coding
Duration : 31mn 4s
Bit rate : 2 990 Kbps
Width : 1 248 pixels
Original width : 1 280 pixels
Height : 702 pixels
Original height : 720 pixels
Display aspect ratio : 16:9
Frame rate mode : Constant
Frame rate : 29.970 fps
Color space : YUV
Chroma subsampling : 4:2:0
Bit depth : 8 bits
Scan type : Progressive
Bits/(Pixel*Frame) : 0.114
Stream size : 664 MiB (96%)
Language : English
Encoded date : UTC 2013-09-16 16:45:55
Tagged date : UTC 2013-09-16 16:49:20
Color primaries : BT.709
Transfer characteristics : BT.709
Matrix coefficients : BT.709

Audio
ID : 2
Format : AAC
Format/Info : Advanced Audio Codec
Format profile : LC
Codec ID : 40
Duration : 31mn 4s
Source duration : 31mn 4s
Bit rate mode : Constant
Bit rate : 107 Kbps
Nominal bit rate : 128 Kbps
Channel(s) : 2 channels
Channel positions : Front: L R
Sampling rate : 44.1 KHz
Compression mode : Lossy
Stream size : 23.8 MiB (3%)
Source stream size : 23.8 MiB (3%)
Language : English
Encoded date : UTC 2013-09-16 16:45:55
Tagged date : UTC 2013-09-16 16:49:20

Other
ID : 3
Type : Time code
Format : QuickTime TC
Duration : 31mn 4s
Time code of first frame : 00:00:00;00
Time code settings : Striped
Language : English
Encoded date : UTC 2013-09-16 16:49:20
Tagged date : UTC 2013-09-16 16:49:20
General
Format : MPEG-4
Format profile : QuickTime
Codec ID : qt
File size : 645 MiB
Duration : 28mn 38s
Overall bit rate : 3 150 Kbps
Encoded date : UTC 2013-09-16 22:27:59
Tagged date : UTC 2013-09-17 00:48:14
Writing library : Apple QuickTime
Media/UUID : 321D9F60-B9AA-47AF-96FD-8A11C11B3CA8

Video
ID : 1
Format : AVC
Format/Info : Advanced Video Codec
Format profile :
Format settings, CABAC : No
Format settings, ReFrames : 2 frames
Codec ID : avc1
Codec ID/Info : Advanced Video Coding
Duration : 28mn 38s
Bit rate : 3 037 Kbps
Width : 1 248 pixels
Original width : 1 280 pixels
Height : 702 pixels
Original height : 720 pixels
Display aspect ratio : 16:9
Frame rate mode : Constant
Frame rate : 29.970 fps
Color space : YUV
Chroma subsampling : 4:2:0
Bit depth : 8 bits
Scan type : Progressive
Bits/(Pixel*Frame) : 0.116
Stream size : 622 MiB (96%)
Language : English
Encoded date : UTC 2013-09-17 00:46:43
Tagged date : UTC 2013-09-17 00:48:14
Color primaries : BT.709
Transfer characteristics : BT.709
Matrix coefficients : BT.709

Audio
ID : 2
Format : AAC
Format/Info : Advanced Audio Codec
Format profile : LC
Codec ID : 40
Duration : 28mn 38s
Source duration : 28mn 38s
Bit rate mode : Constant
Bit rate : 107 Kbps
Nominal bit rate : 128 Kbps
Channel(s) : 2 channels
Channel positions : Front: L R
Sampling rate : 44.1 KHz
Compression mode : Lossy
Stream size : 22.0 MiB (3%)
Source stream size : 22.0 MiB (3%)
Language : English
Encoded date : UTC 2013-09-17 00:46:43
Tagged date : UTC 2013-09-17 00:48:14

Other
ID : 3
Type : Time code
Format : QuickTime TC
Duration : 28mn 38s
Time code of first frame : 00:00:00;00
Time code settings : Striped
Language : English
Encoded date : UTC 2013-09-17 00:48:14
Tagged date : UTC 2013-09-17 00:48:14
 
   
Торрент:
Зарегистрирован [20 окт 2015, 04:12]
Скачать торрент Магнет ссылка
Скачать торрент
[ Размер 19.72 КБ / Просмотров 1 ]
Статус:
Проверен
 
.torrent скачан: 0 раз
Хэш: 7af1093b3b8dd571cb31d3f1b03094c32b8808cb
Размер: 3.63 ГБ (3 902 784 790 байт)
 

Вернуться в Гонзо-фильмы / Gonzo

Кто сейчас на конференции

Сейчас эту тему просматривают: нет зарегистрированных пользователей и гости: 1


Ресурс не предоставляет электронные версии произведений, а занимается лишь коллекционированием и каталогизацией ссылок, присылаемых и публикуемых на форуме нашими читателями. Если вы являетесь правообладателем какого-либо представленного материала и не желаете чтобы ссылка на него находилась в нашем каталоге, свяжитесь с нами и мы незамедлительно удалим её. Файлы для обмена на трекере предоставлены пользователями сайта, и администрация не несёт ответственности за их содержание. Просьба не заливать файлы, защищенные авторскими правами, а также файлы нелегального содержания!
cron