Liza aime Lou Charmelle / Liza aime Lou Charmelle (Liza Del Sierra, Colmax) [2012 г., Gonzo,WEBRip]

 Статистика раздачи 
Размер: 1.39 ГБ   |  Зарегистрирован: 20 окт 2015, 03:33   |   .torrent скачан: 0 раз
Сидеров: 3  [ 0 байт/сек ]     Личеров: 0  [ 0 байт/сек ]  
  
Случайная аватара
Раздал: 2 ГБ
Скачал: 0 байт
Ратио: Seed.
Сообщения: 12530
Зарегистрирован: 15 окт 2015, 12:16

Liza aime Lou Charmelle / Liza aime Lou Charmelle (Liza Del Sierra, Colmax) [2012 г., Gonzo,WEBRip]

Сообщение Tony Ribas » 20 окт 2015, 03:33


Liza aime Lou Charmelle / Liza aime Lou Charmelle
Год производства: 2012 г.
Страна: FR
Жанр: Gonzo
Продолжительность: 1h 13mn
Язык: Французский

Режиссер: Liza Del Sierra
Студия: Colmax

В ролях: Liza Del Sierra- Lou Charmelle- Michael Cheritto- Ricky Mancini- Tony Carrera


Format : MPEG-4
Format profile : Base Media
Codec ID : isom
File size : 1.39 GiB
Duration : 1h 13mn
Overall bit rate : 2 700 Kbps
Encoded date : UTC 2013-08-16 07:43:31
Tagged date : UTC 2013-08-16 07:43:31

Video
ID : 2
Format : AVC
Format/Info : Advanced Video Codec
Format profile :
Format settings, CABAC : No
Format settings, ReFrames : 1 frame
Format settings, GOP : M=1, N=25
Muxing mode : Container [email protected]
Codec ID : avc1
Codec ID/Info : Advanced Video Coding
Duration : 1h 13mn
Bit rate : 2 568 Kbps
Width : 1 280 pixels
Height : 720 pixels
Display aspect ratio : 16:9
Frame rate mode : Constant
Frame rate : 29.970 fps
Original frame rate : 29.000 fps
Color space : YUV
Chroma subsampling : 4:2:0
Bit depth : 8 bits
Scan type : Progressive
Bits/(Pixel*Frame) : 0.093
Stream size : 1.32 GiB (95%)
Writing library : N
Language : English

Audio
ID : 1
Format : AAC
Format/Info : Advanced Audio Codec
Format profile : LC
Codec ID : 40
Duration : 1h 13mn
Bit rate mode : Constant
Bit rate : 127 Kbps
Channel(s) : 2 channels
Channel positions : Front: L R
Sampling rate : 44.1 KHz
Compression mode : Lossy
Stream size : 67.0 MiB
 
   
Торрент:
Зарегистрирован [20 окт 2015, 03:33]
Скачать торрент Магнет ссылка
Скачать торрент
[ Размер 14.65 КБ / Просмотров 1 ]
Статус:
Проверен
 
.torrent скачан: 0 раз
Хэш: e85a641ba353a9fe9f6394880644f90e2f916fd5
Размер: 1.39 ГБ (1 491 113 695 байт)
 

Вернуться в Гонзо-фильмы / Gonzo

Кто сейчас на конференции

Сейчас эту тему просматривают: нет зарегистрированных пользователей и гости: 1


Ресурс не предоставляет электронные версии произведений, а занимается лишь коллекционированием и каталогизацией ссылок, присылаемых и публикуемых на форуме нашими читателями. Если вы являетесь правообладателем какого-либо представленного материала и не желаете чтобы ссылка на него находилась в нашем каталоге, свяжитесь с нами и мы незамедлительно удалим её. Файлы для обмена на трекере предоставлены пользователями сайта, и администрация не несёт ответственности за их содержание. Просьба не заливать файлы, защищенные авторскими правами, а также файлы нелегального содержания!
cron