Private Specials 72 - Italian Putanas (Omar Galanti, Private) [2013 г., Anal,Gonzo,Bigtits,MILF,DP WEBRip]

 Статистика раздачи 
Размер: 1.72 ГБ   |  Зарегистрирован: 20 окт 2015, 02:57   |   .torrent скачан: 0 раз
Сидеров: 3  [ 0 байт/сек ]     Личеров: 0  [ 0 байт/сек ]  
  
Случайная аватара
Раздал: 2 ГБ
Скачал: 0 байт
Ратио: Seed.
Сообщения: 12530
Зарегистрирован: 15 окт 2015, 12:16

Private Specials 72 - Italian Putanas (Omar Galanti, Private) [2013 г., Anal,Gonzo,Bigtits,MILF,DP WEBRip]

Сообщение Tony Ribas » 20 окт 2015, 02:57


Private Specials 72 - Italian Putanas

Год производства: 2013 г.
Жанр: Anal,Gonzo,Bigtits,MILF,DP
Продолжительность: 2h 27mn
Режиссер: Omar Galanti
Студия: Private

В ролях: Omar Galanti, Asia Morante, Mila Ramos, Lara DeSantis, Jonella Dantes, Lisa Torri

Format : AVI
Format/Info : Audio Video Interleave
Format profile : OpenDML
File size : 1.72 GiB
Duration : 2h 27mn
Overall bit rate : 1 674 Kbps
Movie name : Italian Putanas
Writing application : Lavf53.21.0
Original source form/Name : SPE72NTSC_SCN

Video
ID : 0
Format : MPEG-4 Visual
Format profile : Advanced [email protected]
Format settings, BVOP : 2
Format settings, QPel : No
Format settings, GMC : No warppoints
Format settings, Matrix : Default (H.263)
Muxing mode : Packed bitstream
Codec ID : XVID
Codec ID/Hint : XviD
Duration : 2h 27mn
Bit rate : 1 470 Kbps
Width : 720 pixels
Height : 404 pixels
Display aspect ratio : 16:9
Frame rate : 29.970 fps
Color space : YUV
Chroma subsampling : 4:2:0
Bit depth : 8 bits
Scan type : Progressive
Compression mode : Lossy
Bits/(Pixel*Frame) : 0.169
Stream size : 1.51 GiB (88%)
Writing library : XviD 1.2.1 (UTC 2008-12-04)

Audio
ID : 1
Format : AC-3
Format/Info : Audio Coding 3
Mode extension : CM (complete main)
Format settings, Endianness : Big
Codec ID : 2000
Duration : 2h 27mn
Bit rate mode : Constant
Bit rate : 192 Kbps
Channel(s) : 2 channels
Channel positions : Front: L R
Sampling rate : 48.0 KHz
Bit depth : 16 bits
Compression mode : Lossy
Stream size : 202 MiB (11%)
Alignment : Aligned on interleaves
Interleave, duration : 32 ms (0.96 video frame)
 
   
Торрент:
Зарегистрирован [20 окт 2015, 02:57]
Скачать торрент Магнет ссылка
Скачать торрент
[ Размер 18 КБ / Просмотров 0 ]
Статус:
Проверен
 
.torrent скачан: 0 раз
Хэш: 7d302128b1ef60e63b00a84d3fbbdcebf12a16df
Размер: 1.72 ГБ (1 849 248 054 байт)
 

Вернуться в Гонзо-фильмы / Gonzo

Кто сейчас на конференции

Сейчас эту тему просматривают: нет зарегистрированных пользователей и гости: 1


Ресурс не предоставляет электронные версии произведений, а занимается лишь коллекционированием и каталогизацией ссылок, присылаемых и публикуемых на форуме нашими читателями. Если вы являетесь правообладателем какого-либо представленного материала и не желаете чтобы ссылка на него находилась в нашем каталоге, свяжитесь с нами и мы незамедлительно удалим её. Файлы для обмена на трекере предоставлены пользователями сайта, и администрация не несёт ответственности за их содержание. Просьба не заливать файлы, защищенные авторскими правами, а также файлы нелегального содержания!
cron