POV à la Française 3 / Француженки от первого лица 3 (Fabien Lafait, Maeva Video) [2006 г., Gonzo, P.O.V. - Point of View, Anal,Oral, DVDRip]

 Статистика раздачи 
Размер: 699.88 МБ   |  Зарегистрирован: 04 сен 2015, 22:51   |   .torrent скачан: 0 раз
Сидеров: 3  [ 0 байт/сек ]     Личеров: 0  [ 0 байт/сек ]  
  
В сети
Аватара пользователя
Раздал: 130.41 ГБ
Скачал: 45.05 ГБ
Ратио: 2.895
Сообщения: 349589
Зарегистрирован: 27 июл 2015, 20:38

POV à la Française 3 / Француженки от первого лица 3 (Fabien Lafait, Maeva Video) [2006 г., Gonzo, P.O.V. - Point of View, Anal,Oral, DVDRip]

Сообщение MalonE » 27 мар 2013, 12:32

POV à la Française 3 / Француженки от первого лица 3Год производства: 2006 г.
Страна: France
Жанр: Gonzo, P.O.V. - Point of View, Anal,Oral
Продолжительность: 01.01.35
Язык: Французский
Режиссер: Fabien Lafait
Студия: Maeva Video
В ролях: Nataly Dune, Laura Guerlin
Описание: Avec ce nouveau concept, ces filles se donnent a corps perdu et se lachent entre vos brs. Elles n’attendent qu’une chose, que vous les preniez et leur fassiez l’amour par tous les orifices.
С этим новым понятием, эти девушки отдаются стремглав и расслабляются между вашими brs. Они ожидают только вещь, что вы этих брали и им занялись любовью всеми отверстиями.
Качество видео: DVDRip
Формат видео: AVI
Видео кодек: XviD
Аудио кодек: MP3
Видео: Xvid 576x432 25.00fps 1441 Kbps
Аудио: MPEG Audio Layer 3 48000Hz 2 channels stereo 128kbps
MediaInfo
General
Complete name : E:\торрент\povalafrancaise3\povalafrancaise3.avi
Format : AVI
Format/Info : Audio Video Interleave
File size : 700 MiB
Duration : 1h 1mn
Overall bit rate : 1 588 Kbps
Writing application : VirtualDubMod 1.5.10.2 (build 2542/release)
Writing library : VirtualDubMod build 2542/release
Video
ID : 0
Format : MPEG-4 Visual
Format profile : Advanced [email protected]
Format settings, BVOP : 2
Format settings, QPel : No
Format settings, GMC : No warppoints
Format settings, Matrix : Default (H.263)
Muxing mode : Packed bitstream
Codec ID : XVID
Codec ID/Hint : XviD
Duration : 1h 1mn
Bit rate : 1 441 Kbps
Width : 576 pixels
Height : 432 pixels
Display aspect ratio : 4:3
Frame rate : 25.000 fps
Color space : YUV
Chroma subsampling : 4:2:0
Bit depth : 8 bits
Scan type : Interlaced
Scan order : Bottom Field First
Compression mode : Lossy
Bits/(Pixel*Frame) : 0.232
Stream size : 635 MiB (91%)
Writing library : XviD 1.1.0 (UTC 2005-11-22)
Audio
ID : 1
Format : MPEG Audio
Format version : Version 1
Format profile : Layer 3
Mode : Joint stereo
Codec ID : 55
Codec ID/Hint : MP3
Duration : 1h 1mn
Bit rate mode : Variable
Bit rate : 128 Kbps
Channel(s) : 2 channels
Sampling rate : 48.0 KHz
Compression mode : Lossy
Stream size : 59.0 MiB (8%)
Alignment : Aligned on interleaves
Interleave, duration : 24 ms (0.60 video frame)
Interleave, preload duration : 521 ms
Writing library : LAME3.90.
Encoding settings : -m j -V 4 -q 2 -lowpass 17.6 --abr 128
Обратная сторона обложки
Скринлист
 
   
Торрент:
Зарегистрирован [04 сен 2015, 22:51]
Скачать торрент Магнет ссылка
Скачать торрент
[ Размер 14.18 КБ / Просмотров 0 ]
Статус:
Проверен
 
.torrent скачан: 0 раз
Хэш: ee432141d2385a27dde658ae9dc5152ff44c1130
Размер: 699.88 МБ (733 878 808 байт)
 

Вернуться в Гонзо-фильмы / Gonzo

Кто сейчас на конференции

Сейчас эту тему просматривают: нет зарегистрированных пользователей и гости: 1


Ресурс не предоставляет электронные версии произведений, а занимается лишь коллекционированием и каталогизацией ссылок, присылаемых и публикуемых на форуме нашими читателями. Если вы являетесь правообладателем какого-либо представленного материала и не желаете чтобы ссылка на него находилась в нашем каталоге, свяжитесь с нами и мы незамедлительно удалим её. Файлы для обмена на трекере предоставлены пользователями сайта, и администрация не несёт ответственности за их содержание. Просьба не заливать файлы, защищенные авторскими правами, а также файлы нелегального содержания!
cron