Maximum orgy special pin-up (Franck Vicomte, Marc Dorcel) [2013 г., Orgy(Group), DVDRip]

 Статистика раздачи 
Размер: 703.86 МБ   |  Зарегистрирован: 04 сен 2015, 22:35   |   .torrent скачан: 1 раз
Сидеров: 3  [ 0 байт/сек ]     Личеров: 0  [ 0 байт/сек ]  
  
В сети
Аватара пользователя
Раздал: 130.41 ГБ
Скачал: 45.05 ГБ
Ратио: 2.895
Сообщения: 349589
Зарегистрирован: 27 июл 2015, 20:38

Maximum orgy special pin-up (Franck Vicomte, Marc Dorcel) [2013 г., Orgy(Group), DVDRip]

Сообщение MalonE » 07 апр 2013, 09:45

Maximum orgy special pin-up
#77
Год производства: 2013 г.
Страна: FR
Жанр: Orgy(Group)
Продолжительность: 1h 36mn
Язык: Французский
Режиссер: Franck Vicomte
Студия: Marc Dorcel
В ролях: Aleska Diamond, Anna Polina, Zafira, Brandy Smile, Cayenne Klein, Clara G, Nataly Von, Nesty, Sabby, Bob Terminator, George Uhl, James Brossman
Доп. информация:
Тех.данные
ormat : AVI
Format/Info : Audio Video Interleave
File size : 704 MiB
Duration : 1h 36mn
Overall bit rate : 1 017 Kbps
Video
ID : 0
Format : MPEG-4 Visual
Format profile : Advanced [email protected]
Format settings, BVOP : No
Format settings, QPel : No
Format settings, GMC : No warppoints
Format settings, Matrix : Default (H.263)
Codec ID : XVID
Codec ID/Hint : XviD
Duration : 1h 36mn
Bit rate : 881 Kbps
Width : 624 pixels
Height : 352 pixels
Display aspect ratio : 16:9
Frame rate : 25.000 fps
Color space : YUV
Chroma subsampling : 4:2:0
Bit depth : 8 bits
Scan type : Progressive
Compression mode : Lossy
Bits/(Pixel*Frame) : 0.160
Stream size : 610 MiB (87%)
Writing library : XviD 62
Audio
ID : 1
Format : MPEG Audio
Format version : Version 1
Format profile : Layer 3
Codec ID : 55
Codec ID/Hint : MP3
Duration : 1h 36mn
Bit rate mode : Constant
Bit rate : 128 Kbps
Channel(s) : 2 channels
Sampling rate : 48.0 KHz
Compression mode : Lossy
Stream size : 88.6 MiB (13%)
Alignment : Split accross interleaves
Interleave, duration : 80 ms (2.00 video frames)
Writing library : LAMELAME_MAJOR_VERSI))
Качество видео: DVDRip
Скриншоты
 
   
Торрент:
Зарегистрирован [04 сен 2015, 22:35]
Скачать торрент Магнет ссылка
Скачать торрент
[ Размер 14.21 КБ / Просмотров 0 ]
Статус:
Проверен
 
.torrent скачан: 1 раз
Хэш: 7dcefeb8ee3684495c3c79e19a4c1212911c0f0f
Размер: 703.86 МБ (738 047 650 байт)
 

Вернуться в Гонзо-фильмы / Gonzo

Кто сейчас на конференции

Сейчас эту тему просматривают: нет зарегистрированных пользователей и гости: 1


Ресурс не предоставляет электронные версии произведений, а занимается лишь коллекционированием и каталогизацией ссылок, присылаемых и публикуемых на форуме нашими читателями. Если вы являетесь правообладателем какого-либо представленного материала и не желаете чтобы ссылка на него находилась в нашем каталоге, свяжитесь с нами и мы незамедлительно удалим её. Файлы для обмена на трекере предоставлены пользователями сайта, и администрация не несёт ответственности за их содержание. Просьба не заливать файлы, защищенные авторскими правами, а также файлы нелегального содержания!
cron